<?xml version="1.0" standalone="no"?>
<!DOCTYPE svg PUBLIC "-//W3C//DTD SVG 1.1//EN" "http://www.w3.org/Graphics/SVG/1.1/DTD/svg11.dtd" >
<svg xmlns="http://www.w3.org/2000/svg">
<metadata>Generated by IcoMoon</metadata>
<defs>
<font id="icomoon" horiz-adv-x="1024">
<font-face units-per-em="1024" ascent="960" descent="-64" />
<missing-glyph horiz-adv-x="1024" />
<glyph unicode="&#x20;" horiz-adv-x="512" d="" />
<glyph unicode="&#xe000;" glyph-name="salient-right-arrow" d="M261.254 912.734l43.012 43.016 506.64-506.632-1.142-1.142 1.142-1.14-506.634-506.634-43.018 43.016 464.76 464.76z" />
<glyph unicode="&#xe001;" glyph-name="salient-left-arrow" d="M768.666-16.78l-43.012-43.018-506.638 506.634 1.142 1.142-1.142 1.142 506.632 506.632 43.018-43.016-464.76-464.76z" />
<glyph unicode="&#xe002;" glyph-name="salient-search" d="M1007.728 93.978l-246.59 246.58c36.202 60.716 57.036 131.612 57.036 207.29 0 223.888-182.15 406.040-406.040 406.040-223.884 0-406.036-182.152-406.036-406.040s182.152-406.032 406.038-406.032c75.492 0 146.22 20.732 206.84 56.766 0.036-0.036 0.064-0.076 0.102-0.114l246.582-246.568c11.268-11.286 29.832-10.992 41.46 0.636l99.968 99.974c11.628 11.616 11.912 30.196 0.64 41.468zM105.412 547.848c0 169.126 137.596 306.722 306.722 306.722s306.722-137.594 306.722-306.722c0-169.122-137.594-306.716-306.722-306.716s-306.722 137.594-306.722 306.716z" />
<glyph unicode="&#xe003;" glyph-name="salient-x" d="M937.080 155.544l-300.752 300.752 280.272 280.272c7.142 7.142 7.806 18.056 1.484 24.378l-98.344 98.346c-6.322 6.322-17.238 5.656-24.378-1.484l-280.272-280.272-281.552 281.55c-7.142 7.142-18.056 7.806-24.378 1.484l-98.344-98.344c-6.322-6.322-5.658-17.238 1.484-24.378l281.55-281.552-302.032-302.032c-7.14-7.142-7.806-18.054-1.484-24.378l98.348-98.344c6.32-6.322 17.236-5.658 24.378 1.484l302.032 302.032 300.748-300.752c7.142-7.142 18.056-7.808 24.378-1.484l98.348 98.344c6.318 6.322 5.654 17.234-1.486 24.378z" />
<glyph unicode="&#xe004;" glyph-name="salient-right-line" d="M1013.402 952.608l10.862-10.86-1006.072-1006.072-10.86 10.86z" />
<glyph unicode="&#xe005;" glyph-name="salient-back-to-all" d="M407.758 552.030h-396.494v396.496h396.494v-396.496zM35.84 576.606h347.342v347.344h-347.342v-347.344zM1017.038 552.030h-396.494v396.496h396.494v-396.496zM645.12 576.606h347.342v347.344h-347.342v-347.344zM408.27-57.062h-396.494v396.494h396.494v-396.494zM36.352-32.486h347.342v347.342h-347.342v-347.342zM1017.55-57.062h-396.494v396.494h396.494v-396.494zM645.632-32.486h347.342v347.342h-347.342v-347.342z" />
<glyph unicode="&#xe006;" glyph-name="salient-right-arrow-thin" d="M266.664 919.43l16.482 16.466 487.896-487.936-487.906-487.904-16.472 16.47 471.456 471.456z" />
<glyph unicode="&#xe007;" glyph-name="salient-left-arrow-thin" d="M735.206 919.43l-16.48 16.466-487.902-487.936 487.912-487.904 16.47 16.47-471.454 471.456z" />
<glyph unicode="&#xe008;" glyph-name="salient-down-arrow" d="M976.752 681.842l43.018-43.008-506.634-506.64-1.136 1.138-1.146-1.142-506.63 506.628 43.014 43.018 464.762-464.756 464.752 464.762z" />
<glyph unicode="&#xe00c;" glyph-name="salient-down-arrow-thin" d="M985.186 654.086l16.47-16.48-487.94-487.896-487.906 487.906 16.47 16.47 471.456-471.454z" />
<glyph unicode="&#xe00e;" glyph-name="salient-heart" d="M1024 601.82c0-86.362-37.218-164.030-96.49-217.844h0.49l-320-320c-32-32-64-64-96-64s-64 32-96 64l-320 320h0.49c-59.272 53.814-96.49 131.482-96.49 217.844 0 162.458 131.698 294.156 294.156 294.156 86.362 0 164.030-37.218 217.844-96.49 53.814 59.272 131.482 96.49 217.844 96.49 162.456 0 294.156-131.698 294.156-294.156z" />
<glyph unicode="&#xe010;" glyph-name="salient-plus" d="M580.142 516.142v443.858h-136.262v-443.858h-443.856v-136.216h443.856v-443.926h136.262v443.926h443.834v136.216z" />
<glyph unicode="&#xe011;" glyph-name="salient-pencil" d="M639.77 838.93l-48.598-84.2 112.216-64.8 48.6 84.204-112.218 64.796zM558.774 698.622l-242.994-420.852 112.216-64.796 242.994 420.852-112.216 64.796zM690.816 884.284l74.922-43.286c41.682-24.046 55.52-76.564 31.726-117.784l-70.364-121.79-275.394-477.042-169.254-111.708c-40.96-27.004-70.24-9.026-67.328 38.894l12.148 202.412 345.676 598.836c23.876 41.214 76.524 55.304 117.868 31.468zM274.69 76.962l120.908 79.818-112.218 64.8-8.69-144.618z" />
<glyph unicode="&#xe012;" glyph-name="uniE012" d="M882.402 655.060h-113.644v45.506c0 142.796-115.752 258.55-258.54 258.55s-258.54-115.754-258.54-258.55v-45.506h-113.612c-46.982 0-85.064-46.726-85.064-104.346v-508.672c0-57.64 38.082-104.356 85.064-104.356h744.336c46.96 0 85.044 46.726 85.044 104.356l-0.002 508.672c0 57.62-38.082 104.346-85.042 104.346zM360.93 700.566c0 82.32 66.97 149.3 149.3 149.3s149.3-66.98 149.3-149.3v-45.506h-298.598l-0.002 45.506zM858.204 46.916h-695.962v498.892h695.952v-498.892z" />
<glyph unicode="&#xe013;" glyph-name="be" d="M416.554 473.92c0 0 94.142 6.994 94.142 117.398 0 110.402-77.026 164.276-174.588 164.276h-321.048v-616.978h321.050c0 0 195.974-6.17 195.974 182.11-0.002-0.002 8.554 153.194-115.53 153.194zM312.99 645.94h23.12c0 0 43.634 0 43.634-64.186s-25.676-73.496-54.772-73.496h-168.458v137.682h156.476zM328.006 248.272h-171.492v164.882h179.596c0 0 65.040 0.856 65.040-84.728 0-71.176-47.356-79.4-73.144-80.154zM793.472 598.622c-237.262 0-237.038-237.042-237.038-237.042s-16.294-235.846 237.052-235.846c0 0 211.106-12.062 211.106 164.064h-108.57c0 0 3.614-66.342-98.928-66.342 0 0-108.566-7.26-108.566 107.352h319.692c-0.002 0 34.97 267.814-214.748 267.814zM889.986 413.154h-202.676c0 0 13.27 95.104 108.584 95.104 95.306 0 94.092-95.104 94.092-95.104zM660.752 719.258h254.54v-76h-254.54z" />
<glyph unicode="&#xe014;" glyph-name="vimeo" d="M0 651.606l41.594-54.544c0 0 85.77 67.608 114.36 33.802 28.588-33.802 137.736-441.956 174.17-517.246 31.8-66.030 119.518-153.32 215.714-90.982 96.136 62.34 415.84 335.286 473.066 657.616 57.18 322.226-384.72 254.726-431.53-26.010 116.99 70.236 179.436-28.538 119.57-140.372-59.758-111.724-114.36-184.592-142.952-184.592-28.538 0-50.49 74.768-83.188 205.446-33.798 135.102-33.592 378.46-174.116 350.87-132.518-26.012-306.688-233.988-306.688-233.988z" />
<glyph unicode="&#xe015;" glyph-name="salient-m-eye" d="M512 832q69.667 0 135.5-21.167t115.5-55 93.5-74.833 73.667-82 51.667-74.833 32.167-54.833l10-21.333q-2.333-5-6.333-13.5t-18.833-34.667-31.667-51.667-44.333-60-56.833-64.333-69.5-60.167-82.333-51.5-94.833-34.667-107.333-13.5q-69.667 0-135.5 21.167t-115.5 54.833-93.5 74.333-73.667 81.5-51.667 74.5-32.167 55l-10 21q2.333 5 6.333 13.5t18.833 34.833 31.667 51.833 44.333 60.333 56.833 64.667 69.5 60.333 82.333 51.833 94.833 34.833 107.333 13.5zM512 746.667q-46.667 0-91.667-12.333t-81.167-31.833-70.667-47.167-59.667-54.5-48.833-57.667-37.667-52.833-26.333-44q12.333-21.667 26.333-43.5t37.667-52.333 48.833-57 59.667-53.833 70.667-46.667 81.167-31.5 91.667-12.167 91.667 12.333 81.167 31.667 70.667 46.833 59.667 54.167 48.833 57.333 37.667 52.667 26.333 43.667q-12.333 21.667-26.333 43.667t-37.667 52.667-48.833 57.333-59.667 54.167-70.667 46.833-81.167 31.667-91.667 12.333zM512 618.667q70.667 0 120.667-50t50-120.667-50-120.667-120.667-50-120.667 50-50 120.667 50 120.667 120.667 50zM512 533.333q-35.333 0-60.333-25t-25-60.333 25-60.333 60.333-25 60.333 25 25 60.333-25 60.333-60.333 25z" />
<glyph unicode="&#xe016;" glyph-name="salient-m-clock" d="M512 917.333q95.667 0 182.5-37.167t149.667-100 100-149.667 37.167-182.5-37.167-182.5-100-149.667-149.667-100-182.5-37.167-182.5 37.167-149.667 100-100 149.667-37.167 182.5 37.167 182.5 100 149.667 149.667 100 182.5 37.167zM512 832q-78 0-149.167-30.5t-122.5-81.833-81.833-122.5-30.5-149.167 30.5-149.167 81.833-122.5 122.5-81.833 149.167-30.5 149.167 30.5 122.5 81.833 81.833 122.5 30.5 149.167-30.5 149.167-81.833 122.5-122.5 81.833-149.167 30.5zM512 746.667q17.667 0 30.167-12.5t12.5-30.167v-238.333l115.667-115.333q12.333-12.333 12.333-30.333t-12.333-30.333-30.333-12.333-30.333 12.333l-128 128q-12.333 12.333-12.333 30.333v256q0 17.667 12.5 30.167t30.167 12.5z" />
<glyph unicode="&#xe023;" glyph-name="salient-m-gear" d="M512 960q53 0 90.5-37.5t37.5-90.5v-22q15.667-5.333 37.667-15.333l15.333 15.333q37.667 37.667 90.667 37.667 52.667 0 90.333-37.667t37.667-90.333q0-53-37.667-90.667l-15.333-15.333q10-22 15.333-37.667h22q53 0 90.5-37.5t37.5-90.5-37.5-90.5-90.5-37.5h-22q-5.333-15.667-15.333-37.667l15.333-15.333q37.667-37.667 37.667-90.667 0-52.667-37.667-90.333t-90.333-37.667q-53 0-90.667 37.667l-15.333 15.333q-22-10-37.667-15.333v-22q0-53-37.5-90.5t-90.5-37.5-90.5 37.5-37.5 90.5v22q-15.667 5.333-37.667 15.333l-15.333-15.333q-37.667-37.667-90.333-37.667-53 0-90.5 37.667t-37.5 90.333q0 53.333 37.333 90.667l15.333 15.333q-10 22-15.333 37.667h-22q-53 0-90.5 37.5t-37.5 90.5 37.5 90.5 90.5 37.5h22q5.333 15.667 15.333 37.667l-15.333 15.333q-37.333 37.333-37.333 90.667 0 52.667 37.5 90.333t90.5 37.667q52.667 0 90.333-37.667l15.333-15.333q22 10 37.667 15.333v22q0 53 37.5 90.5t90.5 37.5zM512 874.667q-17.667 0-30.167-12.5t-12.5-30.167v-88.333q-74.667-10.667-136.333-56.333l-62.333 62.333q-12.667 12.667-30 12.667-17.667 0-30.167-12.5t-12.5-30.167q0-18 12.333-30.333l62.333-62.333q-45.667-61.667-56.333-136.333h-88.333q-17.667 0-30.167-12.5t-12.5-30.167 12.5-30.167 30.167-12.5h88.333q10.667-74.667 56.333-136.333l-62.333-62.333q-12.333-12.333-12.333-30.333 0-17.667 12.5-30.167t30.167-12.5q17.333 0 30 12.667l62.333 62.333q61.667-45.667 136.333-56.333v-88.333q0-17.667 12.5-30.167t30.167-12.5 30.167 12.5 12.5 30.167v88.333q74.667 10.667 136.333 56.333l62.333-62.333q12.667-12.667 30.333-12.667t30.167 12.5 12.5 30.167-12.667 30.333l-62.333 62.333q45.667 61.667 56.333 136.333h88.333q17.667 0 30.167 12.5t12.5 30.167-12.5 30.167-30.167 12.5h-88.333q-10.667 74.667-56.333 136.333l62.333 62.333q12.667 12.667 12.667 30.333t-12.5 30.167-30.167 12.5-30.333-12.667l-62.333-62.333q-61.667 45.667-136.333 56.333v88.333q0 17.667-12.5 30.167t-30.167 12.5zM512 618.667q70.667 0 120.667-50t50-120.667-50-120.667-120.667-50-120.667 50-50 120.667 50 120.667 120.667 50zM512 533.333q-35.333 0-60.333-25t-25-60.333 25-60.333 60.333-25 60.333 25 25 60.333-25 60.333-60.333 25z" />
<glyph unicode="&#xe024;" glyph-name="salient-m-heart" d="M753.333 874.667q69.667 0 128.5-34.333t93.167-93.167 34.333-128.5q0-50-19.167-97.167t-55.833-83.833l-422.333-422.333-422.333 422.333q-36.667 36.667-55.833 83.833t-19.167 97.167q0 69.667 34.333 128.5t93.167 93.167 128.5 34.333q50.333 0 97.167-19t83.833-56l60.333-60.333 60.333 60.333q36.667 36.667 83.833 55.833t97.167 19.167zM753.333 789.333q-33.333 0-64.667-12.667t-56-37.333l-120.667-120.667-120.667 120.667q-24.667 24.667-56 37.333t-64.667 12.667q-46.667 0-85.833-22.833t-62-62-22.833-85.833q0-33.333 12.667-64.667t37.333-56l362-362 362 362q24.667 24.667 37.333 56t12.667 64.667q0 46.667-22.833 85.833t-62 62-85.833 22.833z" />
<glyph unicode="&#xe034;" glyph-name="uniE034" d="M213.333 960h597.333q53 0 90.5-37.5t37.5-90.5v-768q0-53-37.5-90.5t-90.5-37.5h-597.333q-53 0-90.5 37.5t-37.5 90.5v768q0 53 37.5 90.5t90.5 37.5zM341.333 234.667h341.333q17.667 0 30.167-12.5t12.5-30.167-12.5-30.167-30.167-12.5h-341.333q-17.667 0-30.167 12.5t-12.5 30.167 12.5 30.167 30.167 12.5zM341.333 405.333h341.333q17.667 0 30.167-12.5t12.5-30.167-12.5-30.167-30.167-12.5h-341.333q-17.667 0-30.167 12.5t-12.5 30.167 12.5 30.167 30.167 12.5zM810.667 874.667h-597.333q-17.667 0-30.167-12.5t-12.5-30.167v-768q0-17.667 12.5-30.167t30.167-12.5h597.333q17.667 0 30.167 12.5t12.5 30.167v768q0 17.667-12.5 30.167t-30.167 12.5zM341.333 576h341.333q17.667 0 30.167-12.5t12.5-30.167-12.5-30.167-30.167-12.5h-341.333q-17.667 0-30.167 12.5t-12.5 30.167 12.5 30.167 30.167 12.5zM341.333 746.667h170.667q17.667 0 30.167-12.5t12.5-30.167-12.5-30.167-30.167-12.5h-170.667q-17.667 0-30.167 12.5t-12.5 30.167 12.5 30.167 30.167 12.5z" />
<glyph unicode="&#xe036;" glyph-name="salient-m-search" d="M426.667 917.333q78 0 149.167-30.5t122.5-81.833 81.833-122.5 30.5-149.167q0-67-21.833-128.333t-62.167-111.333l242.333-242q12.333-12.333 12.333-30.333 0-18.333-12.167-30.5t-30.5-12.167q-18 0-30.333 12.333l-242 242.333q-50-40.333-111.333-62.167t-128.333-21.833q-78 0-149.167 30.5t-122.5 81.833-81.833 122.5-30.5 149.167 30.5 149.167 81.833 122.5 122.5 81.833 149.167 30.5zM426.667 832q-60.667 0-116-23.667t-95.333-63.667-63.667-95.333-23.667-116 23.667-116 63.667-95.333 95.333-63.667 116-23.667 116 23.667 95.333 63.667 63.667 95.333 23.667 116-23.667 116-63.667 95.333-95.333 63.667-116 23.667z" />
<glyph unicode="&#xe050;" glyph-name="salient-m-prev" d="M725.333 789.333q17.667 0 30.167-12.5t12.5-30.167q0-18-12.333-30.333l-268.667-268.333 268.667-268.667q12.333-12.333 12.333-30.333 0-17.667-12.5-30t-30.167-12.333q-18 0-30.333 12.333l-298.667 298.667q-12.333 13-12.333 30.333 0 17 12.333 30l298.667 298.667q12.667 12.667 30.333 12.667zM256 789.333q17.667 0 30.167-12.5t12.5-30.167v-597.333q0-17.667-12.5-30.167t-30.167-12.5-30.167 12.5-12.5 30.167v597.333q0 17.667 12.5 30.167t30.167 12.5z" />
<glyph unicode="&#xe051;" glyph-name="salient-m-rewind" d="M768 789.333q17.667 0 30.167-12.5t12.5-30.167-12.667-30.333l-268.333-268.333 268.333-268.333q12.667-12.667 12.667-30.333t-12.5-30.167-30.167-12.5q-18 0-30.333 12.333l-298.667 298.667q-12.333 12.333-12.333 30.333t12.333 30.333l298.667 298.667q12.333 12.333 30.333 12.333zM512 789.333q17.667 0 30.167-12.5t12.5-30.167-12.667-30.333l-268.333-268.333 268.333-268.333q12.667-12.667 12.667-30.333t-12.5-30.167-30.167-12.5q-18 0-30.333 12.333l-298.667 298.667q-12.333 12.333-12.333 30.333t12.333 30.333l298.667 298.667q12.333 12.333 30.333 12.333z" />
<glyph unicode="&#xe052;" glyph-name="salient-m-play" d="M170.667 64v768l640-384zM644.667 448l-388.667 233.333v-466.667z" />
<glyph unicode="&#xe054;" glyph-name="salient-m-stop" d="M256 832h512q53 0 90.5-37.5t37.5-90.5v-512q0-53-37.5-90.5t-90.5-37.5h-512q-53 0-90.5 37.5t-37.5 90.5v512q0 53 37.5 90.5t90.5 37.5zM768 746.667h-512q-17.667 0-30.167-12.5t-12.5-30.167v-512q0-17.667 12.5-30.167t30.167-12.5h512q17.667 0 30.167 12.5t12.5 30.167v512q0 17.667-12.5 30.167t-30.167 12.5z" />
<glyph unicode="&#xe055;" glyph-name="salient-m-ff" d="M469.333 789.333q17.667 0 30-12.333l298.667-298.667q12.667-12.667 12.667-30.333t-12.667-30.333l-298.667-298.667q-12.333-12.333-30-12.333t-30.167 12.5-12.5 30.167q0 18 12.333 30.333l268.333 268.333-268.333 268.333q-12.333 12.333-12.333 30.333 0 18.333 12.167 30.5t30.5 12.167zM213.333 789.333q17.667 0 30-12.333l298.667-298.667q12.667-12.667 12.667-30.333t-12.667-30.333l-298.667-298.667q-12.333-12.333-30-12.333t-30.167 12.5-12.5 30.167q0 18 12.333 30.333l268.333 268.333-268.333 268.333q-12.333 12.333-12.333 30.333 0 18.333 12.167 30.5t30.5 12.167z" />
<glyph unicode="&#xe056;" glyph-name="salient-m-next" d="M256 789.333q17.667 0 30.333-12.667l298.667-298.667q12.333-12.333 12.333-30 0-18-12.333-30.333l-298.667-298.667q-12.333-12.333-30.333-12.333-17.667 0-30.167 12.333t-12.5 30q0 17.333 12.333 30.333l268.667 268.667-268.667 268.333q-12.333 13-12.333 30.333 0 17.667 12.5 30.167t30.167 12.5zM725.333 789.333q17.667 0 30.167-12.5t12.5-30.167v-597.333q0-17.667-12.5-30.167t-30.167-12.5-30.167 12.5-12.5 30.167v597.333q0 17.667 12.5 30.167t30.167 12.5z" />
<glyph unicode="&#xe067;" glyph-name="uniE067" d="M96 512h-64c-17.664 0-32-14.336-32-32v-64c0-17.664 14.336-32 32-32h64c17.664 0 32 14.336 32 32v64c0 17.664-14.336 32-32 32zM992 480h-672c-17.664 0-32-14.336-32-32s14.336-32 32-32h672c17.664 0 32 14.336 32 32s-14.336 32-32 32zM96 256h-64c-17.664 0-32-14.336-32-32v-64c0-17.664 14.336-32 32-32h64c17.664 0 32 14.336 32 32v64c0 17.664-14.336 32-32 32zM992 224h-672c-17.664 0-32-14.336-32-32s14.336-32 32-32h672c17.664 0 32 14.336 32 32s-14.336 32-32 32zM96 768h-64c-17.664 0-32-14.336-32-32v-64c0-17.664 14.336-32 32-32h64c17.664 0 32 14.336 32 32v64c0 17.664-14.336 32-32 32zM320 672h672c17.664 0 32 14.336 32 32s-14.336 32-32 32h-672c-17.664 0-32-14.336-32-32s14.336-32 32-32z" />
<glyph unicode="&#xe074;" glyph-name="salient-user" horiz-adv-x="1023" d="M965.632 300.958c-74.642 48.111-163.666 80.646-259.364 90.85l-2.649 0.229c42.114 45.888 67.94 107.315 67.989 174.772v135.667c0 142.758-115.728 258.485-258.485 258.485s-258.485-115.728-258.485-258.485v0-135.657c0.14-67.297 25.818-128.569 67.853-174.667l-0.185 0.205c-99.5-10.034-189.684-42.741-267.622-92.845l2.402 1.445c-34.751-25.222-57.090-65.709-57.090-111.414 0-0.405 0.002-0.81 0.005-1.214v0.062-114.49c-0.004-0.381-0.006-0.832-0.006-1.283 0-76.161 61.741-137.902 137.902-137.902 0.002 0 0.004 0 0.006 0h747.555c0.095 0 0.208 0 0.321 0 75.984 0 137.581 61.597 137.581 137.581 0 0.113 0 0.226 0 0.339v-0.017 116.094c0 0.063 0 0.137 0 0.211 0 46.029-22.604 86.779-57.317 111.755l-0.409 0.28zM350.847 702.477c0 89.091 72.222 161.313 161.313 161.313s161.313-72.222 161.313-161.313v0-135.657c0-89.091-72.222-161.313-161.313-161.313s-161.313 72.222-161.313 161.313v0zM928.11 73.902c0-23.025-18.666-41.691-41.691-41.691v0h-748.517c-23.025 0-41.691 18.666-41.691 41.691v114.49c-0.026 0.545-0.041 1.184-0.041 1.826 0 13.604 6.67 25.651 16.918 33.048l0.12 0.082c46.181 32.070 160.351 86.589 398.632 86.589s352.13-54.519 398.311-86.589c10.077-7.282 16.65-18.873 16.996-32.017l0.001-0.054z" />
<glyph unicode="&#xe076;" glyph-name="salient-m-chat" d="M170.667 917.333h682.667q53 0 90.5-37.5t37.5-90.5v-469.333q0-53-37.5-90.5t-90.5-37.5h-341.333l-298.667-213.333v213.333h-42.667q-53 0-90.5 37.5t-37.5 90.5v469.333q0 53 37.5 90.5t90.5 37.5zM853.333 832h-682.667q-17.667 0-30.167-12.5t-12.5-30.167v-469.333q0-17.667 12.5-30.167t30.167-12.5h128v-133l186 133h368.667q17.667 0 30.167 12.5t12.5 30.167v469.333q0 17.667-12.5 30.167t-30.167 12.5z" />
<glyph unicode="&#xe081;" glyph-name="salient-m-social" d="M768 874.667q70.667 0 120.667-50t50-120.667-50-120.667-120.667-50q-37.667 0-71.167 15.5t-57.5 43.167l-216.333-108.333q3.667-17.667 3.667-35.667t-3.667-35.667l216.333-108.333q24 27.667 57.5 43.167t71.167 15.5q70.667 0 120.667-50t50-120.667-50-120.667-120.667-50-120.667 50-50 120.667q0 18 3.667 35.667l-216.333 108.333q-24-27.667-57.5-43.167t-71.167-15.5q-70.667 0-120.667 50t-50 120.667 50 120.667 120.667 50q37.667 0 71.167-15.5t57.5-43.167l216.333 108.333q-3.667 17.667-3.667 35.667 0 70.667 50 120.667t120.667 50zM256 533.333q-35.333 0-60.333-25t-25-60.333 25-60.333 60.333-25 60.333 25 25 60.333-25 60.333-60.333 25zM768 277.333q-35.333 0-60.333-25t-25-60.333 25-60.333 60.333-25 60.333 25 25 60.333-25 60.333-60.333 25zM768 789.333q-35.333 0-60.333-25t-25-60.333 25-60.333 60.333-25 60.333 25 25 60.333-25 60.333-60.333 25z" />
<glyph unicode="&#xe094;" glyph-name="salient-m-left-arrow" d="M426.667 789.333q17.667 0 30.167-12.5t12.5-30.167q0-18-12.667-30.333l-225.667-225.667h665q17.667 0 30.167-12.5t12.5-30.167-12.5-30.167-30.167-12.5h-665l225.667-225.667q12.667-12.333 12.667-30.333 0-17.667-12.5-30.167t-30.167-12.5q-18 0-30.333 12.333l-298.667 298.667q-12.333 13-12.333 30.333t12.333 30.333l298.667 298.667q12.667 12.333 30.333 12.333z" />
<glyph unicode="&#xe095;" glyph-name="salient-m-right-arrow" d="M597.333 789.333q18 0 30.333-12.333l298.667-298.667q12.333-12.333 12.333-30.333t-12.333-30.333l-298.667-298.667q-12.333-12.333-30.333-12.333-18.333 0-30.5 12.167t-12.167 30.5q0 18 12.333 30.333l226 225.667h-665q-17.667 0-30.167 12.5t-12.5 30.167 12.5 30.167 30.167 12.5h665l-226 225.667q-12.333 12.333-12.333 30.333 0 18.333 12.167 30.5t30.5 12.167z" />
<glyph unicode="&#xe098;" glyph-name="salient-m-sound" d="M213.333 618.667l213.333 213.333v-768l-213.333 213.333h-85.333q-53 0-90.5 37.5t-37.5 90.5v83.667q0 53 37.5 91.333t90.5 38.333h85.333zM341.333 270v357.667l-92.667-94.333h-120.667q-17.333 0-30-13.167t-12.667-31.167v-83.667q0-17.667 12.5-30.167t30.167-12.5h120.667zM620 590.333q12.333 0 23.167-7t16.167-19q23.333-56.333 23.333-116.333 0-61-23.333-115.667-5-12-15.833-19.167t-23.5-7.167q-15.667 0-29.167 11.833t-13.5 30.833q0 7.667 3.333 16.667 16.667 39.333 16.667 82.667 0 43-16.667 83-3.333 7.667-3.333 16.667 0 19 12.833 30.833t29.833 11.833zM750.333 709.333q24 0 36.667-21 33-55 49-113.667 17.333-62.667 17.333-126.667 0-63.667-17.333-127-16.333-59.333-49-113.667-12.333-20.667-36.667-20.667-16.667 0-29.667 12t-13 30.667q0 11.667 6.333 22 26 43.333 39.667 92.667 14.333 50 14.333 104 0 53.667-14.333 103.667-13.667 49.333-39.667 93-6.333 9.667-6.333 21.667 0 18 13.167 30.5t29.5 12.5zM878 826.333q23 0 35.333-18.667 54.333-79.667 82.5-171.333t28.167-188.333-28.167-188.333-82.5-171.333q-12-18.667-35.333-18.667-17.333 0-29.833 12t-12.5 30.667q0 13.333 7.333 24 95.667 140.333 95.667 311.667 0 84-24.333 163.333t-71.333 148.333q-7.333 10.667-7.333 24 0 18.667 12.5 30.667t29.833 12z" />
<glyph unicode="&#xe099;" glyph-name="salient-m-mute" d="M256 618.667l213.333 213.333v-768l-213.333 213.333h-85.333q-53 0-90.5 37.5t-37.5 90.5v83.667q0 53 37.5 91.333t90.5 38.333h85.333zM384 270v357.667l-92.667-94.333h-120.667q-17.333 0-30-13.167t-12.667-31.167v-83.667q0-17.667 12.5-30.167t30.167-12.5h120.667zM896 618.667q18.333 0 30.5-12.167t12.167-30.5q0-18-12.333-30.333l-98-97.667 98-97.667q12.333-12.333 12.333-30.333 0-18.333-12.167-30.5t-30.5-12.167q-18 0-30.333 12.333l-97.667 98-97.667-98q-12.333-12.333-30.333-12.333-18.333 0-30.5 12.167t-12.167 30.5q0 18 12.333 30.333l98 97.667-98 97.667q-12.333 12.333-12.333 30.333 0 18.333 12.167 30.5t30.5 12.167q18 0 30.333-12.333l97.667-98 97.667 98q12.333 12.333 30.333 12.333z" />
<glyph unicode="&#xe09b;" glyph-name="uniE09B" d="M512 882.512l137.472-285.088 312.608-46.464-226.416-225.84 7.616-45.312 45.28-270.16-276.608 148.784-276.592-148.848 45.296 270.224 7.584 45.312-226.336 225.872 312.592 46.464 20.544 42.544 116.96 242.512zM511.984 944.448c-28.656 0-54.784-16.176-66.976-41.456l-115.904-240.64-266.704-39.664c-27.392-4.096-50.144-22.8-58.976-48.384-8.816-25.664-2.144-53.904 17.2-73.152l195.408-195.2-45.328-270.656c-4.56-27.28 7.232-54.624 30.368-70.576 12.72-8.736 27.664-13.152 42.624-13.152 12.32 0 24.64 2.992 35.792 8.976l232.496 125.184 232.512-125.184c11.184-5.984 23.504-8.976 35.776-8.976 14.96 0 29.904 4.416 42.656 13.152 23.104 15.952 34.912 43.296 30.32 70.576l-45.344 270.656 195.504 195.2c19.344 19.248 25.968 47.504 17.152 73.152-8.848 25.616-31.6 44.32-58.976 48.384l-266.656 39.664-115.968 240.64c-12.112 25.312-38.256 41.456-66.976 41.456v0z" />
<glyph unicode="&#xe106;" glyph-name="e900" d="M512 960q43.333 0 82.833-17t68-45.5 45.5-68 17-82.833v-42.667h170.667v-640q0-53-37.5-90.5t-90.5-37.5h-512q-53 0-90.5 37.5t-37.5 90.5v640h170.667v42.667q0 43.333 17 82.833t45.5 68 68 45.5 82.833 17zM810.667 64v554.667h-597.333v-554.667q0-17.667 12.5-30.167t30.167-12.5h512q17.667 0 30.167 12.5t12.5 30.167zM512 874.667q-53 0-90.5-37.5t-37.5-90.5v-42.667h256v42.667q0 53-37.5 90.5t-90.5 37.5z" />
<glyph unicode="&#xe110;" glyph-name="uniE110" d="M725.333 917.333h128q53 0 90.5-37.5t37.5-90.5v-128q0-17.667-12.5-30.167t-30.167-12.5-30.167 12.5-12.5 30.167v128q0 17.667-12.5 30.167t-30.167 12.5h-128q-17.667 0-30.167 12.5t-12.5 30.167 12.5 30.167 30.167 12.5zM85.333 277.333q17.667 0 30.167-12.5t12.5-30.167v-128q0-17.667 12.5-30.167t30.167-12.5h128q17.667 0 30.167-12.5t12.5-30.167-12.5-30.167-30.167-12.5h-128q-53 0-90.5 37.5t-37.5 90.5v128q0 17.667 12.5 30.167t30.167 12.5zM170.667 917.333h128q17.667 0 30.167-12.5t12.5-30.167-12.5-30.167-30.167-12.5h-128q-17.667 0-30.167-12.5t-12.5-30.167v-128q0-17.667-12.5-30.167t-30.167-12.5-30.167 12.5-12.5 30.167v128q0 53 37.5 90.5t90.5 37.5zM938.667 277.333q17.667 0 30.167-12.5t12.5-30.167v-128q0-53-37.5-90.5t-90.5-37.5h-128q-17.667 0-30.167 12.5t-12.5 30.167 12.5 30.167 30.167 12.5h128q17.667 0 30.167 12.5t12.5 30.167v128q0 17.667 12.5 30.167t30.167 12.5z" />
<glyph unicode="&#xe111;" glyph-name="uniE111" d="M725.333 917.333q17.667 0 30.167-12.5t12.5-30.167v-128q0-17.667 12.5-30.167t30.167-12.5h128q17.667 0 30.167-12.5t12.5-30.167-12.5-30.167-30.167-12.5h-128q-53 0-90.5 37.5t-37.5 90.5v128q0 17.667 12.5 30.167t30.167 12.5zM85.333 277.333h128q53 0 90.5-37.5t37.5-90.5v-128q0-17.667-12.5-30.167t-30.167-12.5-30.167 12.5-12.5 30.167v128q0 17.667-12.5 30.167t-30.167 12.5h-128q-17.667 0-30.167 12.5t-12.5 30.167 12.5 30.167 30.167 12.5zM298.667 917.333q17.667 0 30.167-12.5t12.5-30.167v-128q0-53-37.5-90.5t-90.5-37.5h-128q-17.667 0-30.167 12.5t-12.5 30.167 12.5 30.167 30.167 12.5h128q17.667 0 30.167 12.5t12.5 30.167v128q0 17.667 12.5 30.167t30.167 12.5zM810.667 277.333h128q17.667 0 30.167-12.5t12.5-30.167-12.5-30.167-30.167-12.5h-128q-17.667 0-30.167-12.5t-12.5-30.167v-128q0-17.667-12.5-30.167t-30.167-12.5-30.167 12.5-12.5 30.167v128q0 53 37.5 90.5t90.5 37.5z" />
<glyph unicode="&#xe117;" glyph-name="salient-m-close" d="M810.667 789.333q18.333 0 30.5-12.167t12.167-30.5q0-18-12.333-30.333l-268.667-268.333 268.667-268.333q12.333-12.333 12.333-30.333 0-18.333-12.167-30.5t-30.5-12.167q-18 0-30.333 12.333l-268.333 268.667-268.333-268.667q-12.333-12.333-30.333-12.333-18.333 0-30.5 12.167t-12.167 30.5q0 18 12.333 30.333l268.667 268.333-268.667 268.333q-12.333 12.333-12.333 30.333 0 18.333 12.167 30.5t30.5 12.167q18 0 30.333-12.333l268.333-268.667 268.333 268.667q12.333 12.333 30.333 12.333z" />
<glyph unicode="&#xe120;" glyph-name="salient-m-menu" d="M128 746.667h768q17.667 0 30.167-12.5t12.5-30.167-12.5-30.167-30.167-12.5h-768q-17.667 0-30.167 12.5t-12.5 30.167 12.5 30.167 30.167 12.5zM128 234.667h768q17.667 0 30.167-12.5t12.5-30.167-12.5-30.167-30.167-12.5h-768q-17.667 0-30.167 12.5t-12.5 30.167 12.5 30.167 30.167 12.5zM128 490.667h768q17.667 0 30.167-12.5t12.5-30.167-12.5-30.167-30.167-12.5h-768q-17.667 0-30.167 12.5t-12.5 30.167 12.5 30.167 30.167 12.5z" />
<glyph unicode="&#xe600;" glyph-name="soundcloud" d="M891.96 445.772c-18.086 0-35.348-3.52-51.064-9.856-10.506 114.358-110.29 204.060-232 204.060-29.786 0-58.682-5.63-84.318-15.164-9.96-3.702-12.578-7.52-12.578-14.916v-402.714c0-7.766 6.24-14.234 14.124-14.996 0.336-0.034 363.536-0.21 365.89-0.21 72.904 0 131.986 56.816 131.986 126.894s-59.134 126.902-132.040 126.902zM400 191.976h32l16 224.22-16 223.78h-32l-16-223.78zM304 191.976h-32l-16 162.75 16 157.25h32l16-160zM144 191.976h32l16 128-16 128h-32l-16-128zM16 255.976h32l16 64-16 64h-32l-16-64z" />
<glyph unicode="&#xe601;" glyph-name="button-arrow" d="M659.846 95.474c-7.558 0-15.134 2.908-20.91 8.664-11.572 11.552-11.572 30.27 0 41.82l271.524 271.524h-873.164c-16.324 0-29.574 13.25-29.574 29.614 0 16.322 13.23 29.572 29.574 29.572h873.164l-271.502 271.564c-11.53 11.552-11.53 30.27 0 41.82 11.53 11.53 30.27 11.53 41.82 0l342.876-342.958-342.918-342.958c-5.774-5.754-13.332-8.664-20.89-8.664z" />
<glyph unicode="&#xe602;" glyph-name="salient-thin-line" d="M284.432 444.12h473.226v-15.326h-473.226v15.326z" />
<glyph unicode="&#xe604;" glyph-name="pinterest" d="M441.14 295.502c-26.88-140.954-59.7-276.122-156.98-346.726-30.002 213.094 44.082 373.094 78.49 542.976-58.676 98.816 7.066 297.574 130.866 248.576 152.32-60.262-131.89-367.258 58.88-405.606 199.22-40.038 280.524 345.6 157.030 470.988-178.482 181.146-519.578 4.198-477.594-255.026 10.188-63.386 75.674-82.638 26.164-170.086-114.228 25.294-148.326 115.404-143.924 235.52 7.066 196.558 176.64 334.182 346.726 353.228 215.142 24.116 417.024-78.95 444.826-281.292 31.386-228.352-97.024-475.7-327.116-457.882-62.31 4.762-88.474 35.634-137.37 65.332z" />
<glyph unicode="&#xe605;" glyph-name="uniE605" d="M259.892 816.616c0-54.426-40.192-98.51-106.29-98.51-62.208 0-102.4 44.082-102.4 98.51 0 55.706 41.522 98.51 105.010 98.51s102.4-42.802 103.68-98.51zM56.422 6.428v633.856h197.018v-633.856h-197.018zM371.354 438.094c0 79.052-2.61 145.152-5.222 202.188h171.11l9.114-88.166h3.89c25.908 41.522 89.446 102.4 195.738 102.4 129.586 0 226.816-86.834 226.816-273.51v-374.63h-197.018v351.284c0 81.664-28.57 137.42-99.84 137.42-54.426 0-86.784-37.582-101.068-73.882-5.222-12.954-6.502-31.078-6.502-49.254v-365.568h-197.018v431.718z" />
<glyph unicode="&#xe606;" glyph-name="salient-cart" d="M240.16 754.734l-18.164 107.322h-218.564l19.008-110.58h109.074l79.082-458.92h609.61l203.052 462.178h-783.098zM752.14 396.804h-453.728l-43.706 253.682h608.882l-111.448-253.682zM336.274 213.504c-50.382 0-91.218-40.844-91.218-91.216s40.834-91.218 91.218-91.218c50.382 0 91.218 40.846 91.218 91.22s-40.834 91.216-91.218 91.216zM704.616 213.504c-50.386 0-91.22-40.844-91.22-91.216s40.832-91.218 91.22-91.218c50.38 0 91.216 40.846 91.216 91.22s-40.836 91.216-91.216 91.216z" />
<glyph unicode="&#xe607;" glyph-name="salient-angle-right" horiz-adv-x="366" d="M340 411.429q0-7.429-5.714-13.143l-266.286-266.286q-5.714-5.714-13.143-5.714t-13.143 5.714l-28.571 28.571q-5.714 5.714-5.714 13.143t5.714 13.143l224.571 224.571-224.571 224.571q-5.714 5.714-5.714 13.143t5.714 13.143l28.571 28.571q5.714 5.714 13.143 5.714t13.143-5.714l266.286-266.286q5.714-5.714 5.714-13.143z" />
<glyph unicode="&#xe608;" glyph-name="salient-angle-left" horiz-adv-x="366" d="M358.286 649.143q0-7.429-5.714-13.143l-224.571-224.571 224.571-224.571q5.714-5.714 5.714-13.143t-5.714-13.143l-28.571-28.571q-5.714-5.714-13.143-5.714t-13.143 5.714l-266.286 266.286q-5.714 5.714-5.714 13.143t5.714 13.143l266.286 266.286q5.714 5.714 13.143 5.714t13.143-5.714l28.571-28.571q5.714-5.714 5.714-13.143z" />
<glyph unicode="&#xe609;" glyph-name="salient-angle-up" horiz-adv-x="658" d="M614.286 283.429q0-7.429-5.714-13.143l-28.571-28.571q-5.714-5.714-13.143-5.714t-13.143 5.714l-224.571 224.571-224.571-224.571q-5.714-5.714-13.143-5.714t-13.143 5.714l-28.571 28.571q-5.714 5.714-5.714 13.143t5.714 13.143l266.286 266.286q5.714 5.714 13.143 5.714t13.143-5.714l266.286-266.286q5.714-5.714 5.714-13.143z" />
<glyph unicode="&#xe60a;" glyph-name="salient-angle-down" horiz-adv-x="658" d="M614.286 539.429q0-7.429-5.714-13.143l-266.286-266.286q-5.714-5.714-13.143-5.714t-13.143 5.714l-266.286 266.286q-5.714 5.714-5.714 13.143t5.714 13.143l28.571 28.571q5.714 5.714 13.143 5.714t13.143-5.714l224.571-224.571 224.571 224.571q5.714 5.714 13.143 5.714t13.143-5.714l28.571-28.571q5.714-5.714 5.714-13.143z" />
<glyph unicode="&#xe60b;" glyph-name="salient-pinterest" d="M877.714 448q0-119.429-58.857-220.286t-159.714-159.714-220.286-58.857q-63.429 0-124.571 18.286 33.714 53.143 44.571 93.714 5.143 19.429 30.857 120.571 11.429-22.286 41.714-38.571t65.143-16.286q69.143 0 123.429 39.143t84 107.714 29.714 154.286q0 65.143-34 122.286t-98.571 93.143-145.714 36q-60 0-112-16.571t-88.286-44-62.286-63.143-38.286-74-12.286-76.571q0-59.429 22.857-104.571t66.857-63.429q17.143-6.857 21.714 11.429 1.143 4 4.571 17.714t4.571 17.143q3.429 13.143-6.286 24.571-29.143 34.857-29.143 86.286 0 86.286 59.714 148.286t156.286 62q86.286 0 134.571-46.857t48.286-121.714q0-97.143-39.143-165.143t-100.286-68q-34.857 0-56 24.857t-13.143 59.714q4.571 20 15.143 53.429t17.143 58.857 6.571 43.143q0 28.571-15.429 47.429t-44 18.857q-35.429 0-60-32.571t-24.571-81.143q0-41.714 14.286-69.714l-56.571-238.857q-9.714-40-7.429-101.143-117.714 52-190.286 160.571t-72.571 241.714q0 119.429 58.857 220.286t159.714 159.714 220.286 58.857 220.286-58.857 159.714-159.714 58.857-220.286z" />
<glyph unicode="&#xe60c;" glyph-name="salient-twitter" horiz-adv-x="951" d="M925.714 726.857q-38.286-56-92.571-95.429 0.571-8 0.571-24 0-74.286-21.714-148.286t-66-142-105.429-120.286-147.429-83.429-184.571-31.143q-154.857 0-283.429 82.857 20-2.286 44.571-2.286 128.571 0 229.143 78.857-60 1.143-107.429 36.857t-65.143 91.143q18.857-2.857 34.857-2.857 24.571 0 48.571 6.286-64 13.143-106 63.714t-42 117.429v2.286q38.857-21.714 83.429-23.429-37.714 25.143-60 65.714t-22.286 88q0 50.286 25.143 93.143 69.143-85.143 168.286-136.286t212.286-56.857q-4.571 21.714-4.571 42.286 0 76.571 54 130.571t130.571 54q80 0 134.857-58.286 62.286 12 117.143 44.571-21.143-65.714-81.143-101.714 53.143 5.714 106.286 28.571z" />
<glyph unicode="&#xe60d;" glyph-name="salient-facebook" horiz-adv-x="585" d="M548 953.143v-150.857h-89.714q-49.143 0-66.286-20.571t-17.143-61.714v-108h167.429l-22.286-169.143h-145.143v-433.714h-174.857v433.714h-145.714v169.143h145.714v124.571q0 106.286 59.429 164.857t158.286 58.571q84 0 130.286-6.857z" />
<glyph unicode="&#xe900;" glyph-name="salient-m-bag" horiz-adv-x="853" d="M768-64h-682.667c-47.061 0-85.333 38.272-85.333 85.333v682.667c0 47.061 38.272 85.333 85.333 85.333h170.667v42.667c0 70.571 57.429 128 128 128h85.333c70.571 0 128-57.429 128-128v-42.667h170.667c47.061 0 85.333-38.272 85.333-85.333v-682.667c0-47.061-38.272-85.333-85.333-85.333zM512 832c0 23.509-19.157 42.667-42.667 42.667h-85.333c-23.509 0-42.667-19.157-42.667-42.667v-42.667h170.667v42.667zM597.333 704v-42.667c0-23.552-19.115-42.667-42.667-42.667s-42.667 19.115-42.667 42.667v42.667h-170.667v-42.667c0-23.552-19.115-42.667-42.667-42.667s-42.667 19.115-42.667 42.667v42.667h-170.667v-682.667h682.539l0.128 682.667h-170.667z" />
<glyph unicode="&#xe901;" glyph-name="search" d="M978.132-26.195c-13.932-14.097-36.486-14.097-50.401 0l-209.33 210.028c-71.625-60.973-163.907-97.847-264.808-97.847-227.447 0-411.831 186.738-411.831 417.108 0 230.372 184.384 417.126 411.831 417.126 227.45 0 411.816-186.755 411.816-417.126 0-102.198-36.407-195.663-96.607-268.212l209.33-210.028c13.919-14.093 13.919-36.938 0-51.049zM790.533 503.094c0 188.504-150.845 341.272-336.94 341.272-186.111 0-336.94-152.768-336.94-341.272 0-188.485 150.829-341.271 336.94-341.271 186.095 0 336.94 152.786 336.94 341.271zM952.925-39.268c-10.19 0-19.77 4.019-26.973 11.316l-207.694 208.388c-36.141-30.427-76.637-54.22-120.399-70.73-46.115-17.398-94.652-26.22-144.265-26.22-110.678 0-214.729 43.651-292.987 122.908-78.249 79.251-121.344 184.621-121.344 296.699 0 112.081 43.094 217.453 121.344 296.708 78.258 79.264 182.309 122.917 292.987 122.917s214.725-43.653 292.979-122.917c78.244-79.254 121.335-184.627 121.335-296.708 0-50.239-8.708-99.389-25.883-146.086-16.303-44.332-39.8-85.356-69.852-121.967l207.73-208.422c14.853-15.040 14.853-39.516 0.008-54.566-7.212-7.3-16.794-11.319-26.985-11.319zM718.541 187.232l210.961-211.665c6.264-6.348 14.58-9.838 23.424-9.838 8.845 0 17.166 3.492 23.43 9.83 12.933 13.114 12.934 34.44 0 47.538l-210.926 211.63 1.452 1.748c61.925 74.63 96.031 169.317 96.031 266.616 0 228.627-183.619 414.628-409.317 414.628-225.706 0-409.332-186.001-409.332-414.628 0-228.617 183.626-414.61 409.332-414.61 96.049 0 189.517 34.537 263.188 97.252l1.757 1.498zM453.594 159.324c-90.683 0-175.931 35.761-240.040 100.696-64.099 64.925-99.4 151.251-99.4 243.073 0 91.831 35.301 178.158 99.4 243.081 64.106 64.932 149.354 100.69 240.040 100.69 90.679 0 175.924-35.759 240.033-100.69 64.102-64.924 99.405-151.252 99.405-243.081 0-91.821-35.302-178.147-99.405-243.073-64.11-64.936-149.356-100.696-240.033-100.696zM453.594 841.868c-184.412 0-334.441-151.973-334.441-338.774s150.030-338.774 334.441-338.774 334.442 151.973 334.442 338.774c0 186.801-150.030 338.774-334.442 338.774zM952.927-39.135c-10.156 0-19.702 4.005-26.88 11.277l-207.782 208.474c-36.152-30.455-76.667-54.266-120.453-70.785-46.099-17.393-94.621-26.212-144.216-26.212-55.919 0-110.166 11.092-161.234 32.969-49.324 21.128-93.619 51.374-131.657 89.9-38.036 38.524-67.899 83.383-88.759 133.334-21.596 51.713-32.547 106.647-32.547 163.273s10.95 111.56 32.547 163.277c20.86 49.952 50.723 94.813 88.759 133.339 38.038 38.527 82.335 68.776 131.657 89.906 51.068 21.878 105.316 32.972 161.234 32.972s110.166-11.094 161.233-32.972c49.322-21.13 93.617-51.379 131.652-89.906 38.034-38.525 67.894-83.387 88.753-133.339 21.595-51.716 32.544-106.65 32.544-163.277 0-50.222-8.705-99.357-25.874-146.042-16.312-44.356-39.826-85.396-69.907-122.022l207.816-208.507c14.802-14.988 14.802-39.382 0.008-54.381-7.188-7.273-16.739-11.277-26.892-11.277zM718.533 187.053l210.875-211.58c6.29-6.371 14.639-9.875 23.519-9.875s17.234 3.506 23.524 9.869c12.986 13.166 12.986 34.575 0 47.725l-210.842 211.547 1.375 1.655c61.946 74.655 96.060 169.37 96.060 266.701 0 228.7-183.679 414.761-409.45 414.761-225.78 0-409.466-186.061-409.466-414.761 0-228.69 183.685-414.742 409.466-414.742 96.079 0 189.578 34.548 263.274 97.283l1.665 1.418zM453.594 159.456c-90.647 0-175.862 35.747-239.945 100.658-64.074 64.9-99.361 151.191-99.361 242.98 0 91.796 35.287 178.090 99.361 242.988 64.083 64.906 149.295 100.652 239.945 100.652 90.643 0 175.857-35.745 239.94-100.652 64.078-64.9 99.366-151.194 99.366-242.988 0-91.786-35.288-178.079-99.366-242.98-64.086-64.911-149.298-100.658-239.94-100.658zM453.594 842.001c-184.484 0-334.574-152.033-334.574-338.907s150.089-338.906 334.574-338.906 334.574 152.032 334.574 338.906c0 186.874-150.089 338.907-334.574 338.907zM952.927-41.633c-10.829 0-21.006 4.269-28.658 12.020l-206.158 206.84c-35.921-29.93-76.086-53.386-119.418-69.736-46.381-17.499-95.2-26.372-145.1-26.372-56.26 0-110.838 11.16-162.218 33.171-49.623 21.256-94.186 51.685-132.452 90.441-38.263 38.753-68.303 83.88-89.286 134.127-21.724 52.020-32.74 107.277-32.74 164.236s11.016 112.215 32.74 164.239c20.984 50.249 51.025 95.378 89.286 134.132 38.267 38.758 82.829 69.189 132.452 90.447 51.382 22.012 105.96 33.172 162.218 33.172 56.26 0 110.838-11.16 162.217-33.172 49.622-21.26 94.182-51.69 132.447-90.447 38.259-38.755 68.297-83.882 89.28-134.132 21.723-52.023 32.737-107.281 32.737-164.239 0-50.518-8.756-99.944-26.028-146.904-16.146-43.904-39.318-84.599-68.891-120.993l206.225-206.909c15.762-15.962 15.766-41.932 0.015-57.9-7.661-7.753-17.842-12.022-28.669-12.022zM718.673 190.454l212.506-213.217c5.821-5.897 13.542-9.14 21.748-9.14s15.93 3.242 21.747 9.126c12.028 12.197 12.028 32.031-0.001 44.214l-212.438 213.148 2.826 3.405c61.573 74.208 95.484 168.357 95.484 265.105 0 227.322-182.557 412.262-406.952 412.262-224.402 0-406.967-184.94-406.967-412.262 0-227.311 182.565-412.243 406.967-412.243 95.487 0 188.411 34.337 261.654 96.686l3.425 2.917zM453.594 156.957c-91.32 0-177.167 36.012-241.723 101.4-64.539 65.371-100.082 152.285-100.082 244.736 0 92.457 35.543 179.375 100.082 244.744 64.556 65.385 150.401 101.394 241.723 101.394 91.318 0 177.161-36.009 241.718-101.394 64.543-65.371 100.087-152.289 100.087-244.744 0-92.448-35.546-179.363-100.087-244.736-64.558-65.389-150.401-101.4-241.718-101.4zM453.594 839.502c-183.107 0-332.076-150.912-332.076-336.408s148.969-336.407 332.076-336.407 332.076 150.912 332.076 336.407c0 185.495-148.969 336.408-332.076 336.408zM952.927-42.493c-11.060 0-21.457 4.36-29.271 12.275l-205.615 206.268c-35.837-29.747-75.863-53.071-119.043-69.361-46.481-17.537-95.401-26.429-145.404-26.429-56.376 0-111.068 11.183-162.557 33.24-49.725 21.302-94.38 51.793-132.724 90.628-38.34 38.833-68.442 84.050-89.468 134.401-21.769 52.127-32.806 107.494-32.806 164.566 0 57.075 11.037 112.444 32.806 164.571 21.027 50.351 51.128 95.571 89.468 134.404 38.345 38.838 83 69.331 132.724 90.634 51.489 22.058 106.181 33.243 162.557 33.243s111.068-11.185 162.557-33.243c49.723-21.302 94.376-51.796 132.719-90.634 38.337-38.833 68.438-84.054 89.462-134.404 21.766-52.128 32.804-107.496 32.804-164.571 0-50.619-8.774-100.143-26.080-147.2-16.097-43.768-39.149-84.333-68.557-120.654l205.709-206.364c16.078-16.282 16.079-42.792 0.003-59.094-7.827-7.918-18.226-12.276-29.284-12.276zM718.74 191.639l213.065-213.812c5.646-5.719 13.147-8.87 21.121-8.87s15.48 3.151 21.134 8.873c11.698 11.86 11.699 31.154-0.001 43.002l-212.973 213.719 3.31 3.99c61.446 74.052 95.286 168.006 95.286 264.556 0 226.848-182.17 411.401-406.089 411.401-223.927 0-406.106-184.553-406.106-411.401 0-226.838 182.177-411.383 406.106-411.383 95.281 0 188.008 34.264 261.096 96.48l4.051 3.447zM453.594 156.097c-91.553 0-177.617 36.101-242.336 101.655-64.698 65.533-100.329 152.664-100.329 245.341 0 92.686 35.631 179.818 100.329 245.348 64.718 65.55 150.783 101.65 242.336 101.65 91.549 0 177.61-36.1 242.331-101.65 64.703-65.532 100.335-152.664 100.335-245.348 0-92.676-35.633-179.807-100.335-245.341-64.722-65.554-150.783-101.655-242.331-101.655zM453.594 838.641c-182.633 0-331.214-150.525-331.214-335.547 0-185.020 148.581-335.547 331.214-335.547s331.215 150.525 331.215 335.547c0 185.021-148.582 335.547-331.215 335.547zM952.927-44.992c-11.734 0-22.761 4.623-31.049 13.018l-204.001 204.649c-35.597-29.229-75.283-52.21-117.997-68.324-46.764-17.644-95.981-26.589-146.286-26.589-56.716 0-111.739 11.251-163.542 33.441-50.022 21.428-94.945 52.102-133.519 91.169-38.568 39.063-68.846 84.549-89.996 135.194-21.897 52.433-33 108.125-33 165.53 0 57.408 11.103 113.101 33 165.533 21.151 50.648 51.429 96.134 89.996 135.197 38.573 39.068 83.496 69.745 133.519 91.174 51.802 22.191 106.825 33.444 163.542 33.444s111.739-11.252 163.54-33.444c50.021-21.43 94.941-52.106 133.513-91.176 38.566-39.066 68.844-84.552 89.989-135.197 21.894-52.433 32.997-108.127 32.997-165.533 0-50.913-8.827-100.728-26.234-148.063-15.926-43.302-38.647-83.534-67.549-119.615l204.128-204.776c17.042-17.257 17.043-45.341 0.012-62.612-8.301-8.397-19.332-13.020-31.063-13.020zM718.2 179.429l207.226-207.884c7.35-7.444 17.114-11.54 27.501-11.54s20.155 4.096 27.507 11.533c15.121 15.333 15.121 40.268-0.003 55.583l-207.287 207.945 1.413 1.745c29.228 36.102 52.159 76.457 68.152 119.945 17.203 46.78 25.926 96.015 25.926 146.339 0 56.742-10.972 111.788-32.612 163.608-20.897 50.051-50.82 95.004-88.933 133.612-38.115 38.606-82.501 68.918-131.924 90.093-51.176 21.924-105.536 33.041-161.573 33.041s-110.399-11.117-161.573-33.041c-49.426-21.175-93.814-51.487-131.931-90.093-38.115-38.605-68.038-83.558-88.941-133.612-21.64-51.821-32.613-106.866-32.613-163.608 0-56.74 10.972-111.785 32.613-163.603 20.901-50.051 50.825-95.003 88.941-133.608s82.506-68.914 131.931-90.086c51.177-21.921 105.539-33.038 161.573-33.038 49.701 0 98.324 8.837 144.521 26.268 42.899 16.184 82.71 39.38 118.33 68.946l1.756 1.457zM952.927-33.542c-8.646 0-16.78 3.414-22.899 9.613l-211.428 212.169-2.291-1.951c-73.539-62.601-166.84-97.076-262.715-97.076-225.306 0-408.604 185.667-408.604 413.882 0 228.224 183.299 413.9 408.604 413.9 225.297 0 408.588-185.674 408.588-413.9 0-97.13-34.044-191.652-95.86-266.15l-1.86-2.24 211.369-212.109c12.666-12.823 12.667-33.688 0.010-46.519-6.13-6.203-14.267-9.618-22.913-9.618zM718.88 195.040l214.696-215.45c5.181-5.249 12.051-8.134 19.351-8.134 7.301 0 14.176 2.888 19.357 8.131 10.744 10.893 10.744 28.609-0.003 39.489l-214.569 215.322 4.763 5.738c61.074 73.603 94.71 166.99 94.71 262.959 0 225.469-181.050 408.902-403.59 408.902-222.55 0-403.607-183.433-403.607-408.902 0-225.46 181.057-408.884 403.607-408.884 94.689 0 186.839 34.053 259.476 95.885l5.809 4.945zM453.594 153.599c-92.227 0-178.922 36.366-244.114 102.399-65.164 66.004-101.050 153.759-101.050 247.096 0 93.347 35.886 181.102 101.050 247.103 65.192 66.030 151.886 102.394 244.114 102.394 92.223 0 178.915-36.364 244.109-102.394 65.167-66.003 101.056-153.759 101.056-247.104 0-93.338-35.889-181.092-101.056-247.096-65.196-66.033-151.887-102.397-244.109-102.397zM453.594 847.594c-90.881 0-176.314-35.836-240.559-100.908-64.233-65.060-99.608-151.569-99.608-243.593 0-92.017 35.375-178.523 99.608-243.585 64.247-65.074 149.679-100.913 240.558-100.913 90.875 0 176.305 35.839 240.553 100.913 64.238 65.064 99.615 151.571 99.615 243.585 0 92.022-35.377 178.531-99.615 243.593-64.246 65.071-149.676 100.908-240.552 100.908zM453.594 165.050c-184.010 0-333.713 151.645-333.713 338.044s149.704 338.045 333.713 338.045 333.713-151.647 333.713-338.045c0-186.399-149.702-338.044-333.713-338.044zM453.594 836.142c-181.254 0-328.716-149.405-328.716-333.048s147.461-333.047 328.716-333.047 328.717 149.404 328.717 333.047c0 183.644-147.462 333.048-328.717 333.048zM952.927-44.86c-11.698 0-22.692 4.609-30.954 12.979l-204.088 204.733c-35.608-29.254-75.314-52.255-118.052-68.379-46.749-17.638-95.951-26.582-146.24-26.582-56.698 0-111.703 11.249-163.489 33.431-50.004 21.421-94.913 52.084-133.477 91.141-38.555 39.049-68.824 84.521-89.967 135.151-21.891 52.416-32.989 108.091-32.989 165.478 0 57.389 11.099 113.065 32.989 165.482 21.144 50.633 51.414 96.106 89.967 135.155 38.561 39.057 83.47 69.723 133.477 91.146 51.786 22.185 106.79 33.434 163.489 33.434s111.704-11.249 163.488-33.434c50.006-21.422 94.911-52.088 133.471-91.146 38.554-39.052 68.82-84.524 89.962-135.155 21.888-52.417 32.987-108.093 32.987-165.482 0-50.899-8.824-100.699-26.226-148.017-15.933-43.327-38.673-83.576-67.603-119.671l204.212-204.859c16.991-17.206 16.992-45.207 0.010-62.426-8.274-8.372-19.272-12.982-30.967-12.982zM718.191 179.25l207.141-207.799c7.373-7.469 17.171-11.579 27.594-11.579s20.224 4.11 27.601 11.574c15.172 15.384 15.172 40.402-0.003 55.768l-207.203 207.862 1.338 1.652c29.238 36.114 52.177 76.481 68.174 119.982 17.21 46.794 25.934 96.045 25.934 146.385 0 56.76-10.975 111.823-32.621 163.66-20.906 50.067-50.838 95.035-88.963 133.654s-82.528 68.94-131.965 90.12c-51.192 21.932-105.571 33.051-161.626 33.051s-110.433-11.121-161.626-33.051c-49.441-21.181-93.843-51.502-131.973-90.121-38.126-38.616-68.059-83.584-88.969-133.654-21.647-51.837-32.623-106.9-32.623-163.66 0-56.758 10.976-111.82 32.623-163.654 20.909-50.068 50.842-95.035 88.969-133.65 38.131-38.618 82.533-68.937 131.973-90.116 51.194-21.93 105.572-33.050 161.626-33.050 49.715 0 98.355 8.841 144.568 26.277 42.912 16.191 82.737 39.395 118.368 68.969l1.661 1.38zM952.927-33.409c-8.612 0-16.71 3.401-22.806 9.574l-211.514 212.255-2.383-2.029c-73.517-62.582-166.787-97.047-262.63-97.047-225.233 0-408.471 185.608-408.471 413.75 0 228.152 183.238 413.766 408.471 413.766 225.222 0 408.456-185.615 408.456-413.766 0-97.1-34.033-191.59-95.831-266.066l-1.937-2.333 211.455-212.193c12.612-12.772 12.613-33.554 0.009-46.332-6.104-6.177-14.208-9.578-22.819-9.578zM718.872 194.86l214.61-215.364c5.204-5.272 12.109-8.173 19.444-8.173 7.337 0 14.245 2.902 19.452 8.169 10.794 10.944 10.793 28.744-0.003 39.676l-214.484 215.237 4.685 5.645c61.094 73.627 94.74 167.045 94.74 263.044 0 225.544-181.11 409.034-403.724 409.034-222.623 0-403.739-183.492-403.739-409.034 0-225.533 181.117-409.016 403.739-409.016 94.721 0 186.902 34.063 259.561 95.917l5.718 4.865zM453.594 153.732c-92.191 0-178.852 36.352-244.020 102.359-65.138 65.979-101.011 153.701-101.011 247.004 0 93.311 35.873 181.034 101.011 247.011 65.167 66.003 151.828 102.354 244.020 102.354 92.187 0 178.845-36.351 244.014-102.354 65.142-65.979 101.018-153.702 101.018-247.011 0-93.302-35.876-181.023-101.018-247.004-65.17-66.008-151.828-102.359-244.014-102.359zM453.594 847.726c-90.916 0-176.383-35.85-240.653-100.947-64.259-65.084-99.647-151.628-99.647-243.685 0-92.051 35.388-178.591 99.647-243.679 64.271-65.1 149.737-100.952 240.653-100.952 90.909 0 176.374 35.852 240.648 100.952 64.261 65.089 99.653 151.629 99.653 243.679 0 92.056-35.391 178.598-99.653 243.685-64.273 65.097-149.736 100.947-240.648 100.947zM453.594 165.181c-183.936 0-333.581 151.588-333.581 337.912 0 186.327 149.644 337.914 333.581 337.914 183.939 0 333.581-151.587 333.581-337.914 0-186.324-149.642-337.912-333.581-337.912zM453.594 836.275c-181.327 0-328.849-149.464-328.849-333.181s147.521-333.18 328.849-333.18 328.849 149.464 328.849 333.18c0 183.717-147.521 333.181-328.849 333.181zM952.927-47.359c-12.372 0-23.996 4.873-32.732 13.722l-202.482 203.122c-35.364-28.742-74.717-51.397-116.997-67.348-47.032-17.745-96.53-26.742-147.121-26.742-57.038 0-112.374 11.315-164.474 33.633-50.304 21.549-95.48 52.396-134.271 91.681-38.781 39.278-69.228 85.016-90.496 135.945-22.019 52.722-33.181 108.721-33.181 166.44 0 57.722 11.164 113.722 33.181 166.445 21.267 50.93 51.715 96.669 90.496 135.949 38.789 39.288 83.965 70.136 134.271 91.688 52.097 22.319 107.434 33.636 164.474 33.636s112.375-11.316 164.472-33.636c50.303-21.55 95.476-52.398 134.266-91.688 38.779-39.281 69.225-85.020 90.49-135.948 22.016-52.724 33.179-108.724 33.179-166.445 0-51.195-8.876-101.284-26.38-148.881-15.767-42.872-38.17-82.77-66.606-118.624l202.639-203.281c17.951-18.179 17.956-47.757 0.019-65.943-8.749-8.851-20.378-13.725-32.748-13.725zM718.35 182.63l208.751-209.416c6.906-6.995 16.074-10.843 25.824-10.843 9.748 0 18.92 3.846 25.824 10.831 14.216 14.414 14.214 37.857-0.004 52.256l-208.778 209.444 2.751 3.397c29.066 35.901 51.868 76.031 67.771 119.272 17.107 46.516 25.782 95.476 25.782 145.522 0 56.428-10.911 111.168-32.429 162.697-20.781 49.77-50.534 94.472-88.434 132.861-37.898 38.387-82.031 68.526-131.173 89.58-50.879 21.797-104.927 32.85-160.64 32.85s-109.763-11.053-160.641-32.85c-49.143-21.053-93.279-51.192-131.178-89.58s-67.656-83.087-88.442-132.861c-21.519-51.53-32.43-106.269-32.43-162.697 0-56.425 10.911-111.163 32.43-162.692 20.785-49.772 50.541-94.47 88.442-132.856s82.036-68.524 131.178-89.574c50.88-21.796 104.928-32.847 160.641-32.847 49.413 0 97.755 8.786 143.686 26.116 42.652 16.092 82.237 39.158 117.654 68.554l3.415 2.836zM952.927-35.908c-9.284 0-18.015 3.665-24.584 10.318l-209.875 210.609-0.623-0.531c-73.969-62.966-167.813-97.642-264.25-97.642-226.61 0-410.97 186.728-410.97 416.248 0 229.53 184.36 416.265 410.97 416.265 226.601 0 410.954-186.735 410.954-416.265 0-97.681-34.239-192.739-96.407-267.661l-0.485-0.586 209.851-210.583c13.573-13.745 13.577-36.105 0.018-49.851-6.579-6.656-15.314-10.321-24.599-10.321zM719.012 198.26l216.241-217c4.739-4.8 11.012-7.439 17.674-7.439 6.664 0 12.941 2.638 17.676 7.427 9.838 9.975 9.837 26.199-0.004 36.164l-216.081 216.84 6.136 7.393c60.722 73.18 94.163 166.030 94.163 261.448 0 224.164-179.988 406.536-401.225 406.536-221.245 0-401.24-182.372-401.24-406.536 0-224.155 179.996-406.519 401.24-406.519 94.129 0 185.733 33.852 257.942 95.32l7.478 6.367zM453.594 151.232c-92.864 0-180.157 36.616-245.798 103.101-65.604 66.451-101.733 154.796-101.733 248.759 0 93.972 36.129 182.319 101.733 248.765 65.64 66.483 152.933 103.098 245.798 103.098 92.859 0 180.151-36.613 245.792-103.096 65.606-66.45 101.738-154.797 101.738-248.767 0-93.964-36.132-182.308-101.738-248.759-65.642-66.486-152.933-103.101-245.792-103.101zM453.594 845.228c-90.244 0-175.077-35.587-238.875-100.204-63.794-64.613-98.926-150.533-98.926-241.93 0-91.389 35.132-177.307 98.926-241.923 63.798-64.621 148.631-100.21 238.874-100.21 90.236 0 175.068 35.588 238.87 100.21 63.798 64.618 98.932 150.536 98.932 241.923 0 91.395-35.135 177.313-98.932 241.93s-148.631 100.204-238.868 100.204zM453.594 162.683c-185.315 0-336.079 152.708-336.079 340.411s150.765 340.412 336.079 340.412 336.079-152.708 336.079-340.412c0-187.703-150.765-340.411-336.079-340.411zM453.594 833.777c-179.949 0-326.35-148.343-326.35-330.683s146.4-330.682 326.35-330.682 326.35 148.343 326.35 330.682c0 182.34-146.399 330.683-326.35 330.683z" />
<glyph unicode="&#xe902;" glyph-name="uniE902" d="M512.684 941.016c26.95 0 52.691-5.293 77.263-15.854 24.576-10.563 45.699-24.714 63.372-42.456 17.719-17.72 31.895-38.867 42.481-63.393 10.586-24.552 15.901-50.314 15.853-77.266v-39.776h172.837v-629.426c0-32.922-11.657-61.087-34.973-84.399-23.314-23.363-51.433-34.973-84.401-34.973h-504.865c-32.945 0-61.085 11.657-84.425 34.973-23.338 23.267-34.973 51.432-34.948 84.399v629.425h172.836v39.776c0 26.929 5.293 52.692 15.855 77.266 10.56 24.573 24.713 45.696 42.456 63.393 17.719 17.696 38.865 31.848 63.393 42.456 24.55 10.609 50.313 15.878 77.266 15.855zM804.891 72.844v549.829h-584.463v-549.829c0-11.005 3.894-20.33 11.658-28.118 7.762-7.788 17.135-11.658 28.116-11.658h504.868c10.958 0 20.376 3.871 28.116 11.658s11.658 17.114 11.658 28.118h0.046zM512.684 861.418c-32.945 0-61.085-11.658-84.425-34.949-23.338-23.315-34.971-51.456-34.95-84.424v-39.776h238.747v39.776c0 32.943-11.658 61.085-34.973 84.424s-51.432 34.972-84.398 34.949z" />
<glyph unicode="&#xe903;" glyph-name="applemusic" d="M1023.872 698.709c0 31.488-2.773 62.72-10.24 93.44-13.525 55.893-45.312 98.56-93.013 129.835-24.491 15.957-51.371 25.856-80.085 31.019-22.059 3.968-44.288 5.76-66.731 6.4-1.707 0.128-3.541 0.427-5.291 0.555h-513.024c-6.485-0.427-12.928-0.725-19.413-1.109-31.872-1.835-63.573-5.248-93.568-17.109-57.003-22.613-98.133-61.952-122.24-118.613-8.192-19.115-12.459-39.467-15.488-60.075-2.389-16.725-3.755-33.493-4.267-50.347 0-1.365-0.299-2.645-0.427-3.968v-521.515c0.427-5.973 0.725-12.075 1.152-18.091 2.133-34.773 6.571-69.291 21.205-101.248 27.733-60.587 74.155-100.395 137.984-119.552 17.92-5.419 36.523-7.979 55.168-9.728 23.68-2.261 47.36-2.56 71.125-2.56h470.613c22.4 0 44.715 1.451 66.987 4.267 35.115 4.523 68.139 14.933 97.963 34.56 35.84 23.595 62.805 54.912 80.213 94.208 7.936 17.92 12.501 37.12 15.787 56.491 4.821 28.8 5.888 57.941 5.845 87.040-0.085 162.133 0 324.053-0.256 486.101zM749.824 528.469v-243.712c0-17.792-2.475-35.285-10.411-51.456-12.373-25.173-32.427-41.045-59.221-48.64-14.933-4.267-30.123-6.699-45.653-7.381-40.533-1.92-75.648 25.6-82.901 65.536-6.059 32.981 9.685 69.291 44.288 86.272 13.781 6.827 28.587 10.667 43.435 13.824 16.128 3.499 32.341 6.528 48.384 10.24 11.691 2.688 19.499 9.813 21.76 22.016 0.597 2.688 0.853 5.547 0.853 8.235 0 77.44 0 154.88-0.085 232.235 0 2.645-0.427 5.333-1.109 7.893-1.707 6.4-6.4 10.368-12.971 9.984-6.827-0.427-13.568-1.493-20.267-2.816-32.427-6.4-64.853-12.928-97.28-19.456l-157.867-31.915c-0.683-0.128-1.365-0.427-2.048-0.555-11.819-3.285-16.085-8.661-16.64-20.907-0.085-1.792 0-3.669 0-5.547-0.085-111.019 0-222.037-0.128-333.013 0-17.92-2.005-35.669-9.173-52.352-11.861-27.307-32.853-44.373-61.184-52.608-14.933-4.267-30.293-6.827-45.867-7.339-40.96-1.536-74.88 25.6-81.92 65.877-5.973 34.645 9.813 71.893 49.237 88.533 15.232 6.4 31.147 9.899 47.275 13.227 12.245 2.56 24.533 4.949 36.693 7.552 16.341 3.541 24.875 13.781 25.6 30.464v6.4c0 126.293 0 252.672 0.085 378.965 0 5.248 0.555 10.667 1.792 15.787 2.987 12.16 11.648 19.115 23.296 22.101 10.88 2.816 21.973 4.779 33.024 7.040 31.275 6.4 62.549 12.629 93.867 18.944l96.853 19.627c28.587 5.717 57.173 11.52 85.76 17.195 9.387 1.835 18.901 3.755 28.331 4.523 13.227 1.067 22.315-7.253 23.637-20.565 0.341-3.115 0.512-6.315 0.512-9.515 0.085-81.493 0.085-163.072 0.043-244.693z" />
<glyph unicode="&#xe904;" glyph-name="salient-houzz" d="M54.187 960v-1024h343.467v322.56h228.693v-322.56h343.467v581.547l-687.787 197.12v245.333z" />
<glyph unicode="&#xe905;" glyph-name="twitch" d="M512 702.857v-248h-82.857v248h82.857zM739.429 702.857v-248h-82.857v248h82.857zM739.429 268.571l144.571 145.143v454.286h-682.286v-599.429h186.286v-124l124 124h227.429zM966.857 950.857v-578.857l-248-248h-186.286l-124-124h-124v124h-227.429v661.714l62.286 165.143h847.429z" />
<glyph unicode="&#xe906;" glyph-name="search-icon-material" horiz-adv-x="1021" d="M1006.202 21.747l-215.326 215.305c61.175 75.268 98.224 172.286 98.224 277.957 0 0.148 0 0.296 0 0.444v-0.023c-0.011 245.145-199.436 444.571-444.55 444.571s-444.55-199.426-444.55-444.55 199.373-444.539 444.55-444.539c0.14 0 0.306 0 0.472 0 104.080 0 199.764 35.944 275.317 96.096l-0.9-0.692 215.665-215.655c9.068-8.933 21.524-14.449 35.268-14.449 27.762 0 50.267 22.505 50.267 50.267 0 13.744-5.516 26.2-14.455 35.274l0.006-0.006zM100.534 515.45c0 189.684 154.321 344.015 344.015 344.015s344.005-154.321 344.005-344.015-154.321-344.005-344.005-344.005-344.015 154.321-344.015 344.005z" />
<glyph unicode="&#xe907;" glyph-name="star-fill" d="M512 180.907l-300.928-168.448 67.2 338.261-253.227 234.155 342.485 40.619 144.469 313.173 144.469-313.173 342.485-40.619-253.227-234.155 67.2-338.261z" />
<glyph unicode="&#xe908;" glyph-name="woo-zoom-icon" d="M512.16 864.267c229.822 0 416.13-186.308 416.13-416.13s-186.308-416.13-416.13-416.13c-229.822 0-416.13 186.308-416.13 416.13v0c0 229.822 186.308 416.13 416.13 416.13v0zM512.16 960.297c-282.858 0-512.16-229.302-512.16-512.16s229.302-512.16 512.16-512.16c282.858 0 512.16 229.302 512.16 512.16v0c0 282.858-229.302 512.16-512.16 512.16v0zM512.16 211.903c-26.518 0-48.015 21.497-48.015 48.015v0 370.036c0 26.518 21.497 48.015 48.015 48.015s48.015-21.497 48.015-48.015v0-370.036c0-26.518-21.497-48.015-48.015-48.015v0zM696.858 396.921h-369.716c-26.518 0-48.015 21.497-48.015 48.015s21.497 48.015 48.015 48.015v0h369.716c26.518 0 48.015-21.497 48.015-48.015s-21.497-48.015-48.015-48.015v0z" />
<glyph unicode="&#xe909;" glyph-name="arrow-right" d="M597.333 768q18 0 30.333-12.333l298.667-298.667q12.333-12.333 12.333-30.333t-12.333-30.333l-298.667-298.667q-12.333-12.333-30.333-12.333-18.333 0-30.5 12.167t-12.167 30.5q0 18 12.333 30.333l226 225.667h-665q-17.667 0-30.167 12.5t-12.5 30.167 12.5 30.167 30.167 12.5h665l-226 225.667q-12.333 12.333-12.333 30.333 0 18.333 12.167 30.5t30.5 12.167z" />
<glyph unicode="&#xe90a;" glyph-name="woo-zoom-icon-minus" d="M512.16 864.29c229.822 0 416.13-186.308 416.13-416.13s-186.308-416.13-416.13-416.13c-229.822 0-416.13 186.308-416.13 416.13v0c0 229.822 186.308 416.13 416.13 416.13v0zM512.16 960.32c-282.858 0-512.16-229.302-512.16-512.16s229.302-512.16 512.16-512.16c282.858 0 512.16 229.302 512.16 512.16v0c0 282.858-229.302 512.16-512.16 512.16v0zM696.858 396.944h-369.716c-26.518 0-48.015 21.497-48.015 48.015s21.497 48.015 48.015 48.015v0h369.716c26.518 0 48.015-21.497 48.015-48.015s-21.497-48.015-48.015-48.015v0z" />
<glyph unicode="&#xe90b;" glyph-name="artstation" d="M0 203.819l86.528-149.547c17.408-33.997 52.198-56.864 92.329-56.875h574.167l-119.125 206.421h-633.899zM1024 202.752c0 20.651-6.101 39.893-16.555 56.064l-336.384 584.789c-17.732 32.966-51.986 54.997-91.386 54.997-0.002 0-0.004 0-0.006 0h-177.792l519.637-900.309 81.92 141.867c16.128 27.179 20.565 39.211 20.565 62.592zM549.163 350.464l-232.235 402.261-232.277-402.261h464.512z" />
<glyph unicode="&#xe90c;" glyph-name="discord" d="M862.805 960c59.989 0 108.373-48.512 111.232-105.6v-918.4l-114.219 96.981-62.72 57.088-68.437 59.648 28.587-94.080h-598.955c-59.819 0-108.373 45.44-108.373 105.643v692.907c0 57.088 48.64 105.685 108.587 105.685l704.299 0.128zM601.771 717.525h-1.28l-8.619-8.533c88.448-25.6 131.243-65.579 131.243-65.579-57.003 28.501-108.373 42.752-159.744 48.512-37.12 5.76-74.24 2.731-105.6 0h-8.533c-20.053 0-62.72-8.533-119.893-31.36-19.925-8.661-31.36-14.336-31.36-14.336s42.752 42.752 136.96 65.579l-5.76 5.76s-71.339 2.731-148.352-54.187c0 0-77.013-134.144-77.013-299.52 0 0 42.667-74.24 159.701-77.056 0 0 17.067 22.741 34.347 42.752-65.707 19.968-91.307 59.904-91.307 59.904s5.717-2.816 14.293-8.533h2.56c1.28 0 1.877-0.64 2.56-1.28v-0.256c0.683-0.683 1.28-1.28 2.56-1.28 14.080-5.803 28.16-11.52 39.68-17.067 19.883-8.619 45.44-17.195 76.8-22.869 39.68-5.76 85.163-8.533 136.96 0 25.6 5.76 51.2 11.392 76.8 22.827 16.64 8.533 37.12 17.067 59.605 31.445 0 0-25.6-39.936-94.080-59.904 14.080-19.883 33.92-42.667 33.92-42.667 117.077 2.56 162.56 76.8 165.12 73.643 0 165.12-77.44 299.52-77.44 299.52-69.76 51.797-135.040 53.76-146.56 53.76l2.389 0.853zM608.939 529.237c29.995 0 54.187-25.6 54.187-56.96 0-31.573-24.32-57.173-54.187-57.173s-54.187 25.6-54.187 56.917c0.085 31.573 24.448 57.088 54.187 57.088zM415.104 529.237c29.867 0 54.016-25.6 54.016-56.96 0-31.573-24.32-57.173-54.187-57.173s-54.187 25.6-54.187 56.917c0 31.573 24.32 57.088 54.187 57.088z" />
<glyph unicode="&#xe90d;" glyph-name="messenger" d="M0 463.36c-0.005 0.857-0.008 1.871-0.008 2.885 0 272.873 221.207 494.080 494.080 494.080 6.305 0 12.582-0.118 18.83-0.352l-0.901 0.027c5.346 0.207 11.624 0.325 17.928 0.325 272.873 0 494.080-221.207 494.080-494.080 0-1.014-0.003-2.028-0.009-3.041l0.001 0.156c0.005-0.857 0.008-1.871 0.008-2.885 0-272.873-221.207-494.080-494.080-494.080-6.305 0-12.582 0.118-18.83 0.352l0.901-0.027c-52.741 0.193-103.66 7.658-151.912 21.444l3.944-0.964h-10.752c-0.074 0-0.161 0.001-0.248 0.001-6.032 0-11.757-1.321-16.899-3.688l0.251 0.104-102.4-45.056c-4.81-2.243-10.44-3.561-16.376-3.584h-0.008c-0.004 0-0.008 0-0.013 0-22.262 0-40.375 17.759-40.946 39.883l-0.001 0.053-2.56 92.16c-0.509 11.625-5.729 21.938-13.784 29.149l-0.040 0.035c-98.578 89.102-160.256 217.434-160.256 360.171 0 0.098 0 0.195 0 0.293v-0.015s0 4.608 0 6.656v0zM354.816 556.544l-150.016-238.592c-2.472-3.719-3.944-8.288-3.944-13.201 0-13.29 10.774-24.064 24.064-24.064 5.558 0 10.676 1.884 14.75 5.049l-0.054-0.041 161.792 122.368c5.043 3.914 11.462 6.275 18.432 6.275s13.389-2.361 18.501-6.326l-0.069 0.051 119.296-89.6c12.683-9.469 28.668-15.161 45.983-15.161 27.225 0 51.163 14.072 64.938 35.34l0.183 0.302 150.528 239.104c2.103 3.502 3.347 7.727 3.347 12.243 0 13.29-10.774 24.064-24.064 24.064-5.296 0-10.193-1.711-14.168-4.611l0.068 0.048-161.792-122.368c-5.013-3.997-11.44-6.413-18.432-6.413s-13.419 2.416-18.492 6.459l0.060-0.046-119.296 89.6c-12.724 9.709-28.849 15.555-46.339 15.555-27.094 0-50.911-14.030-64.582-35.221l-0.183-0.303z" />
<glyph unicode="&#xe90e;" glyph-name="social-icon" horiz-adv-x="975" d="M805.792 274.432c-46.446-0.058-88.482-18.891-118.936-49.316l0.001 0.001-272.035 158.58c6.858 19.86 10.819 42.747 10.819 66.558s-3.96 46.698-11.258 68.038l0.44-1.479 269.457 155.357c30.61-30.849 73.026-49.946 119.902-49.946 93.278 0 168.894 75.616 168.894 168.894s-75.616 168.894-168.894 168.894c-93.278 0-168.894-75.616-168.894-168.894 0-0.005 0-0.010 0-0.014v0.001c0.261-16.765 2.953-32.807 7.736-47.919l-0.323 1.183-271.068-156.646c-39.172 45.216-96.675 73.649-160.82 73.649-117.309 0-212.407-95.098-212.407-212.407s95.098-212.407 212.407-212.407c64.144 0 121.648 28.433 160.594 73.384l0.225 0.266 270.424-156.324c-4.815-14.388-7.739-30.971-8.056-48.191l-0.002-0.157c0-93.456 75.761-169.216 169.216-169.216s169.216 75.761 169.216 169.216c0 93.456-75.761 169.216-169.216 169.216v0zM805.792 876.198c47.173 0 85.414-38.241 85.414-85.414s-38.241-85.414-85.414-85.414c-47.173 0-85.414 38.241-85.414 85.414v0c0 47.173 38.241 85.414 85.414 85.414v0zM212.729 319.234c-71.204 0-128.927 57.722-128.927 128.927s57.722 128.927 128.927 128.927c71.204 0 128.927-57.722 128.927-128.927v0c0-71.204-57.722-128.927-128.927-128.927v0zM805.792 19.802c-47.173 0-85.414 38.241-85.414 85.414s38.241 85.414 85.414 85.414c47.173 0 85.414-38.241 85.414-85.414v0c-0.183-47.034-38.354-85.092-85.413-85.092 0 0 0 0-0.001 0v0z" />
<glyph unicode="&#xe90f;" glyph-name="tiktok" d="M534.613 959.147c55.893 0.853 111.36 0.427 166.827 0.853 3.413-65.28 26.88-131.84 74.667-177.92 47.787-47.36 115.2-69.12 180.907-76.373v-171.947c-61.44 2.133-123.307 14.933-179.2 41.387-24.32 11.093-46.933 25.173-69.12 39.68-0.427-124.587 0.427-249.173-0.853-373.333-3.413-59.733-23.040-119.040-57.6-168.107-55.893-81.92-152.747-135.253-252.16-136.96-61.013-3.413-122.027 13.227-174.080 43.947-86.187 50.773-146.773 143.787-155.733 243.627-0.853 21.333-1.28 42.667-0.427 63.573 7.68 81.067 47.787 158.72 110.080 211.627 70.827 61.44 169.813 90.88 262.4 73.387 0.853-63.147-1.707-126.293-1.707-189.44-42.24 13.653-91.733 9.813-128.853-15.787-26.88-17.493-47.36-44.373-58.027-74.667-8.96-21.76-6.4-45.653-5.973-68.693 10.24-69.973 77.653-128.853 149.333-122.453 47.787 0.427 93.44 28.16 118.187 68.693 8.107 14.080 17.067 28.587 17.493 45.227 4.267 76.373 2.56 152.32 2.987 228.693 0.427 171.947-0.427 343.467 0.853 514.987z" />
<glyph unicode="&#xe910;" glyph-name="salient-bag" horiz-adv-x="757" d="M586.286 693.273v67.882c0.001 0.19 0.001 0.415 0.001 0.64 0 109.819-89.026 198.844-198.844 198.844 0 0-0.001 0-0.001 0h-17.611c0 0-0.001 0-0.001 0-109.819 0-198.844-89.026-198.844-198.844 0-0.225 0-0.45 0.001-0.675v0.035-67.882h-170.987v-632.075c0-69.145 56.053-125.198 125.198-125.198v0h506.877c69.145 0 125.198 56.053 125.198 125.198v0 632.075zM266.086 761.156c-0.001 0.192-0.002 0.418-0.002 0.645 0 56.766 46.018 102.784 102.784 102.784 0.338 0 0.677-0.002 1.014-0.005h17.559c56.766 0 102.784-46.018 102.784-102.784v0-67.562h-224.14zM661.213 61.198c0-16.093-13.046-29.138-29.138-29.138v0h-506.877c-16.093 0-29.138 13.046-29.138 29.138v536.015h565.153z" />
<glyph unicode="&#xe911;" glyph-name="star-half-fill" d="M512 278.699l181.205-101.419-40.491 203.648 152.448 141.013-206.208 24.448-86.955 188.544v-456.235zM512 180.907l-300.928-168.448 67.2 338.261-253.227 234.155 342.485 40.619 144.469 313.173 144.469-313.173 342.485-40.619-253.227-234.155 67.2-338.261-300.928 168.448z" />
<glyph unicode="&#xe912;" glyph-name="salient-patreon" d="M656.469 937.643c-203.264 0-368.64-165.376-368.64-368.64 0-202.667 165.376-367.488 368.64-367.488 202.667 0 367.531 164.864 367.531 367.488 0 203.264-164.864 368.64-367.531 368.64zM0.128-44.245h180.053v981.888h-180.053z" />
<glyph unicode="&#xe913;" glyph-name="salient-threads" d="M754.864 485.396c-4.411 2.114-8.891 4.149-13.429 6.097-7.904 145.637-87.483 229.014-221.105 229.867-0.605 0.004-1.207 0.004-1.813 0.004-79.923 0-146.394-34.115-187.307-96.194l73.488-50.411c30.563 46.371 78.529 56.256 113.854 56.256 0.408 0 0.818 0 1.221-0.004 43.997-0.281 77.197-13.073 98.685-38.019 15.637-18.162 26.096-43.259 31.275-74.932-39.008 6.63-81.195 8.668-126.293 6.083-127.042-7.318-208.714-81.411-203.229-184.366 2.783-52.224 28.801-97.152 73.255-126.501 37.586-24.811 85.995-36.944 136.306-34.197 66.441 3.643 118.564 28.992 154.926 75.344 27.616 35.2 45.083 80.816 52.795 138.293 31.664-19.109 55.131-44.256 68.091-74.485 22.037-51.387 23.323-135.829-45.579-204.672-60.368-60.309-132.933-86.4-242.6-87.205-121.65 0.901-213.652 39.915-273.469 115.957-56.014 71.205-84.962 174.053-86.042 305.691 1.080 131.638 30.028 234.487 86.042 305.692 59.817 76.042 151.818 115.054 273.467 115.958 122.532-0.911 216.138-40.111 278.244-116.52 30.453-37.47 53.413-84.591 68.549-139.532l86.117 22.977c-18.347 67.627-47.216 125.901-86.501 174.23-79.621 97.959-196.069 148.154-346.109 149.195h-0.601c-149.735-1.037-264.879-51.423-342.233-149.756-68.834-87.505-104.341-209.261-105.534-361.884l-0.004-0.36 0.004-0.36c1.193-152.621 36.7-274.381 105.534-361.885 77.354-98.331 192.498-148.72 342.233-149.755h0.601c133.123 0.923 226.957 35.776 304.259 113.008 101.136 101.040 98.091 227.691 64.757 305.44-23.915 55.755-69.509 101.039-131.856 130.948zM525.016 269.296c-55.68-3.136-113.526 21.856-116.378 75.387-2.114 39.691 28.246 83.979 119.795 89.254 10.484 0.605 20.772 0.9 30.879 0.9 33.253 0 64.363-3.23 92.645-9.413-10.549-131.744-72.427-153.136-126.941-156.128z" />
<glyph unicode="&#xe914;" glyph-name="salient-medium" d="M0 960v-1024h1024v1024zM850.688 717.397l-54.912-52.651c-3.862-2.96-6.327-7.575-6.327-12.766 0-0.947 0.082-1.874 0.239-2.775l-0.014 0.096v-386.859c-0.139-0.794-0.219-1.709-0.219-2.642 0-5.188 2.462-9.8 6.282-12.733l0.038-0.028 53.632-52.651v-11.563h-269.739v11.52l55.552 53.973c5.461 5.461 5.461 7.040 5.461 15.36v312.747l-154.453-392.32h-20.907l-179.883 392.32v-262.955c-0.21-1.465-0.329-3.157-0.329-4.877 0-9.839 3.918-18.762 10.279-25.296l-0.008 0.008 72.277-87.637v-11.563h-204.885v11.52l72.32 87.68c6.063 6.283 9.799 14.847 9.799 24.283 0 2.078-0.181 4.114-0.529 6.092l0.031-0.21v304.043c0.088 0.812 0.138 1.755 0.138 2.708 0 7.838-3.387 14.884-8.776 19.756l-0.023 0.021-64.256 77.397v11.52h199.424l154.155-338.048 135.509 338.091h190.123z" />
<glyph unicode="&#xe915;" glyph-name="salient-check" d="M426.667 312.661l392.192 392.235 60.373-60.331-452.565-452.565-271.531 271.531 60.331 60.331z" />
<glyph unicode="&#xe916;" glyph-name="salient-trustpilot" d="M512 193.536l222.464 56.363 92.971-286.464zM1024 563.797h-391.637l-120.363 368.768-120.363-368.768h-391.637l316.971-228.565-120.363-368.768 827.392 597.333z" />
<glyph unicode="&#xe917;" glyph-name="salient-mastodon" d="M989.568 623.829c0 222.123-145.536 287.232-145.536 287.232-73.387 33.707-199.424 47.872-330.283 48.939h-3.243c-130.901-1.067-256.853-15.232-330.24-48.939 0 0-145.536-65.109-145.536-287.232 0-50.859-0.981-111.701 0.64-176.171 5.291-217.259 39.851-431.317 240.683-484.48 92.587-24.491 172.117-29.653 236.16-26.112 116.139 6.4 181.333 41.472 181.333 41.472l-3.84 84.267c0 0-82.987-26.155-176.171-22.997-92.373 3.157-189.824 9.941-204.757 123.349-1.305 9.295-2.050 20.032-2.050 30.944 0 0.296 0.001 0.592 0.002 0.889v-0.046c0 0 90.667-22.187 205.525-27.435 70.229-3.2 136.107 4.139 203.008 12.075 128.299 15.317 240 94.379 254.037 166.613 22.059 113.707 20.267 277.632 20.267 277.632zM817.877 337.579h-106.539v261.077c0 55.040-23.168 82.944-69.461 82.944-51.2 0-76.885-33.109-76.885-98.645v-142.891h-105.941v142.933c0 65.536-25.685 98.645-76.885 98.645-46.293 0-69.461-27.947-69.461-82.944v-261.077h-106.539v268.928c0 54.997 13.995 98.688 42.112 130.987 29.013 32.341 66.944 48.896 114.091 48.896 54.528 0 95.829-20.949 123.136-62.891l26.496-44.501 26.539 44.501c27.307 41.941 68.608 62.891 123.136 62.891 47.104 0 85.077-16.555 114.091-48.896 28.075-32.299 42.069-75.989 42.069-130.987z" />
<glyph unicode="&#xe918;" glyph-name="salient-x-twitter" d="M778.4 864h141.2l-308.4-352.4 362.8-479.6h-284l-222.6 290.8-254.4-290.8h-141.4l329.8 377-347.8 455h291.2l201-265.8 232.6 265.8zM728.8 116.4h78.2l-504.8 667.6h-84l510.6-667.6z" />
<glyph unicode="&#xf005;" glyph-name="salient-star" horiz-adv-x="951" d="M950.857 590.286q0-12.571-14.857-27.429l-207.429-202.286 49.143-285.714q0.571-4 0.571-11.429 0-12-6-20.286t-17.429-8.286q-10.857 0-22.857 6.857l-256.571 134.857-256.571-134.857q-12.571-6.857-22.857-6.857-12 0-18 8.286t-6 20.286q0 3.429 1.143 11.429l49.143 285.714-208 202.286q-14.286 15.429-14.286 27.429 0 21.143 32 26.286l286.857 41.714 128.571 260q10.857 23.429 28 23.429t28-23.429l128.571-260 286.857-41.714q32-5.143 32-26.286z" />
<glyph unicode="&#xf00c;" glyph-name="salient-ok-alt" d="M954.857 636.571q0-22.857-16-38.857l-491.429-491.429q-16-16-38.857-16t-38.857 16l-284.571 284.571q-16 16-16 38.857t16 38.857l77.714 77.714q16 16 38.857 16t38.857-16l168-168.571 374.857 375.429q16 16 38.857 16t38.857-16l77.714-77.714q16-16 16-38.857z" />
<glyph unicode="&#xf03e;" glyph-name="salient-picture" horiz-adv-x="1097" d="M365.714 630.857q0-45.714-32-77.714t-77.714-32-77.714 32-32 77.714 32 77.714 77.714 32 77.714-32 32-77.714zM950.857 411.429v-256h-804.571v109.714l182.857 182.857 91.429-91.429 292.571 292.571zM1005.714 813.714h-914.286q-7.429 0-12.857-5.429t-5.429-12.857v-694.857q0-7.429 5.429-12.857t12.857-5.429h914.286q7.429 0 12.857 5.429t5.429 12.857v694.857q0 7.429-5.429 12.857t-12.857 5.429zM1097.143 795.429v-694.857q0-37.714-26.857-64.571t-64.571-26.857h-914.286q-37.714 0-64.571 26.857t-26.857 64.571v694.857q0 37.714 26.857 64.571t64.571 26.857h914.286q37.714 0 64.571-26.857t26.857-64.571z" />
<glyph unicode="&#xf055;" glyph-name="salient-plus-sign" d="M694.857 411.429v73.143q0 14.857-10.857 25.714t-25.714 10.857h-146.286v146.286q0 14.857-10.857 25.714t-25.714 10.857h-73.143q-14.857 0-25.714-10.857t-10.857-25.714v-146.286h-146.286q-14.857 0-25.714-10.857t-10.857-25.714v-73.143q0-14.857 10.857-25.714t25.714-10.857h146.286v-146.286q0-14.857 10.857-25.714t25.714-10.857h73.143q14.857 0 25.714 10.857t10.857 25.714v146.286h146.286q14.857 0 25.714 10.857t10.857 25.714zM877.714 448q0-119.429-58.857-220.286t-159.714-159.714-220.286-58.857-220.286 58.857-159.714 159.714-58.857 220.286 58.857 220.286 159.714 159.714 220.286 58.857 220.286-58.857 159.714-159.714 58.857-220.286z" />
<glyph unicode="&#xf056;" glyph-name="salient-minus-sign" d="M694.857 411.429v73.143q0 14.857-10.857 25.714t-25.714 10.857h-438.857q-14.857 0-25.714-10.857t-10.857-25.714v-73.143q0-14.857 10.857-25.714t25.714-10.857h438.857q14.857 0 25.714 10.857t10.857 25.714zM877.714 448q0-119.429-58.857-220.286t-159.714-159.714-220.286-58.857-220.286 58.857-159.714 159.714-58.857 220.286 58.857 220.286 159.714 159.714 220.286 58.857 220.286-58.857 159.714-159.714 58.857-220.286z" />
<glyph unicode="&#xf058;" glyph-name="salient-ok-sign" d="M733.714 540.571q0 16-10.286 26.286l-52 51.429q-10.857 10.857-25.714 10.857t-25.714-10.857l-233.143-232.571-129.143 129.143q-10.857 10.857-25.714 10.857t-25.714-10.857l-52-51.429q-10.286-10.286-10.286-26.286 0-15.429 10.286-25.714l206.857-206.857q10.857-10.857 25.714-10.857 15.429 0 26.286 10.857l310.286 310.286q10.286 10.286 10.286 25.714zM877.714 448q0-119.429-58.857-220.286t-159.714-159.714-220.286-58.857-220.286 58.857-159.714 159.714-58.857 220.286 58.857 220.286 159.714 159.714 220.286 58.857 220.286-58.857 159.714-159.714 58.857-220.286z" />
<glyph unicode="&#xf112;" glyph-name="salient-reply" d="M1024 320q0-94.857-72.571-257.714-1.714-4-6-13.714t-7.714-17.143-7.429-12.571q-6.857-9.714-16-9.714-8.571 0-13.429 5.714t-4.857 14.286q0 5.143 1.429 15.143t1.429 13.429q2.857 38.857 2.857 70.286 0 57.714-10 103.429t-27.714 79.143-45.714 57.714-60.286 39.714-76 24.286-88 12.286-100.286 3.429h-128v-146.286q0-14.857-10.857-25.714t-25.714-10.857-25.714 10.857l-292.571 292.571q-10.857 10.857-10.857 25.714t10.857 25.714l292.571 292.571q10.857 10.857 25.714 10.857t25.714-10.857 10.857-25.714v-146.286h128q407.429 0 500-230.286 30.286-76.571 30.286-190.286z" />
<glyph unicode="&#xf1bc;" glyph-name="salient-spotify" d="M39.586 438.834q0 128.616 63.384 237.23t172 172 237.232 63.384 237.23-63.384 172-172 63.384-237.23-63.384-237.23-172-172-237.23-63.384-237.23 63.384-172 172-63.384 237.23zM185.432 590.218q0-19.076 12.616-32t31.694-12.924q6.77 0 24.616 4.924 81.846 22.77 188.924 22.77 97.846 0 190.462-20.924t156-58.462q12.924-7.384 24.616-7.384 17.846 0 31.076 12.616t13.23 31.692q0 28.924-24.616 43.076-77.538 44.924-180.308 68t-211.076 23.076q-125.538 0-224-28.924-14.154-4.308-23.692-15.692t-9.538-29.846zM217.432 436.988q0-15.384 10.77-26.154t26.154-10.77q4.308 0 22.768 4.924 75.076 20.308 154.462 20.308 171.694 0 300.308-76.308 14.77-8 23.384-8 15.384 0 26.154 10.77t10.77 26.154q0 24.616-21.538 37.538-145.846 86.77-337.23 86.77-94.154 0-186.462-25.846-29.538-8-29.538-39.384zM237.122 294.834q0-12.308 8.306-21.23t21.846-8.924q3.076 0 22.77 4.924 81.23 16.616 149.538 16.616 139.076 0 244.308-63.384 11.692-6.77 20.308-6.77 11.692 0 20.308 8.308t8.616 21.23q0 19.692-18.462 31.384-118.77 70.77-275.076 70.77-81.846 0-176.616-20.924-25.846-5.538-25.846-32z" />
</font>
</defs>
</svg>
